Welcome Guest ( Log In | Register )

> Releases Upload / Добавление релизов

Добавить релиз тут / Click here to add release
Рекомендованные обменники / Recommended file shares

> Wiegedood - There's Always Blood At The End Of The Road (2022), Black Metal (D)
post Jan 13 2022, 11:08:55
Post #1

Восемь Литров
********
Group: Металариец
Posts: 883
Releases: 739
On Forums: 9 months 3 days
Thanks: 18542 time(s)
United States


(IMG:http://metalarea.org/images/audiocovers/2022_Jan/acov_tid360402_thumb.jpg)

*Artist: Wiegedood
*Album: There's Always Blood At The End Of The Road
*Year: 2022
*Genre: Black Metal
*Country: Belgium (IMG:http://metalarea.org/forum/style_images/flags/Belgium.png)
*Format: mp3@CBR320kbps
*Size: 116MB

Tracklist:
01. FN SCAR 16 04:07
02. And in Old Salamano's Room, The Dog Whimpered Softly 04:32
03. Noblesse Oblige Richesse Oblige 05:06
04. Until It Is Not 05:40
05. Now Will Always Be 08:16
06. Wade 01:57
07. Nuages 05:50
08. Theft and Begging 04:05
09. Carousel 04:51
******************************
Total playing time: 44:24




Technical info
(IMG:http://metalarea.org/images/spectrogram/2022_Jan/2dd941666ee53502ff731427f7112343.png)
Input File: 02. And In Old Salamano\'s Room, The Dog Whimpered Softly.mp3
Channels : 2
Sample Rate : 44100
Precision : 16-bit
Duration : 00:04:32.00 = 11995200 samples = 20400 CDDA sectors
File Size : 11.1M
Bit Rate : 327k
Sample Encoding: MPEG audio (layer I, II or III)
Comments :
Title=And in Old Salamano's Room, The Dog Whimpered Softly
Artist=Wiegedood
Album=There's Always Blood At The End Of The Road
Tracknumber=02/09
Year=2022-01-14
Genre=Rock
Discnumber=1



Register


Go to the top of the page
  Insert nick Quick quote
+Quote Post
 
Start new topic
Replies (1 - 5)
post Jan 14 2022, 17:00:46
Post #2

Common dweller of hell
**************
Group: Металариец
Posts: 4,205
Releases: 12
From: Dnipro
On Forums: 13 years 6 months
Thanks: 1654 time(s)
Ukraine


Помнится выпускали как то совсем не плохой альбом, следующий правда был не очень.
Go to the top of the page
  Insert nick Quick quote
+Quote Post
post Jan 14 2022, 17:48:22
Post #3

Четыре Литра
****
Group: Металариец
Posts: 368
Releases: 29
From: France
On Forums: 12 years 6 months
Thanks: 919 time(s)
France


Mediafire link is already dead
Go to the top of the page
  Insert nick Quick quote
+Quote Post
post Jan 14 2022, 21:24:55
Post #4

hearer & reader
**************
Group: Металариец
Posts: 10,082
Releases: 183
From: Moscow
On Forums: 14 years 4 months
Thanks: 11679 time(s)
Russian Federation


Register


Thanks:
Go to the top of the page
  Insert nick Quick quote
+Quote Post
post Jan 15 2022, 03:50:41
Post #5

Три Литра
***
Group: Завсегдатай
Posts: 299
Releases: 0
On Forums: 3 years 7 months
Thanks: 121 time(s)
Mexico


QUOTE(squall8fr @ Jan 14 2022, 10:48:22) *
Mediafire link is already dead
It's still working for me (IMG:style_emoticons/default/1488.gif)

Amazing album
Go to the top of the page
  Insert nick Quick quote
+Quote Post
post Jan 22 2022, 20:13:34
Post #6

кручу наждак
**************
Group: Металариец
Posts: 5,371
Releases: 104
From: Самара
On Forums: 11 years 8 months
Thanks: 4262 time(s)
Russian Federation


Отлично, но без 8-минутного филлера в середине было бы ещё лучше.
Go to the top of the page
  Insert nick Quick quote
+Quote Post

Reply to this topicStart new topic
2 User(s) are reading this topic (2 Guests and 0 Anonymous Users)
0 Members:

 



- Lo-Fi Version Support form
Copyrights and abuse reports form
Time is now: 29th January 2022 - 09:00:57