Welcome Guest ( Log In | Register )

> Tyhjä - Valtakunta (2022), Black Metal (D4)
post Jan 13 2022, 11:13:36
Post #1

Serial Uploader
Group Icon
Group: V.I.P
Posts: 38,607
Releases: 36751
From: Lithuania
On Forums: 14 years 3 weeks
Thanks: 456057 time(s)
Lithuania


(IMG:https://metalarea.org/images/audiocovers/2022_Jan/acov_tid360403_thumb.jpg)

*Artist: Tyhjä
*Album: Valtakunta
*Year: 2022
*Genre: Black Metal
*Country: Finland (IMG:https://metalarea.org/forum/style_images/flags/Finland.png)
*Format: mp3@CBR320kbps
*Size: 79MB

Tracklist:
1. Vain Yksi Voi Olla
2. Kuudes Tuuli
3. Pimeä Aika
4. Valtakunta
5. Imperiumien Hauta
6. Kaiken Takana Ammotavva Tyhjyys
7. Planeetan Jättäjä
******************************
Total playing time: 34:21



(IMG:https://metalarea.org/images/youtube.png)

Technical info
(IMG:https://metalarea.org/images/spectrogram/2022_Jan/36b9f31c6864bf11979b354f1ce096fc.png)
Input File: 02 - Kuudes Tuuli.mp3
Channels : 2
Sample Rate : 44100
Precision : 16-bit
Duration : 00:04:20.93 = 11506793 samples = 19569.4 CDDA sectors
File Size : 10.5M
Bit Rate : 323k
Sample Encoding: MPEG audio (layer I, II or III)
Comments :
Title=Kuudes Tuuli
Artist=Tyhjä
Album=VALTAKUNTA
Tracknumber=2/7
Year=2022



Register


Go to the top of the page
  Insert nick Quick quote
+Quote Post
 
Start new topic
Replies (1 - 1)
post Jan 15 2022, 09:58:31
Post #2

I hate you all
**************
Group: Металариец
Posts: 2,972
Releases: 94
From: Ukraine
On Forums: 15 years 1 month
Thanks: 7530 time(s)
Ukraine


Register


Go to the top of the page
  Insert nick Quick quote
+Quote Post

Reply to this topicStart new topic
1 User(s) are reading this topic (1 Guests and 0 Anonymous Users)
0 Members:

 



- Lo-Fi Version Support form
Copyrights and abuse reports form
Time is now: 5th July 2022 - 08:34:07