Welcome Guest ( Log In | Register )

> Releases Upload / Добавление релизов

Добавить релиз тут / Click here to add release
Рекомендованные обменники / Recommended file shares

> Fit For An Autopsy - Oh What The Future Holds (2022), Deathcore (D9)
post Jan 13 2022, 11:18:02
Post #1

MDM-Thrash Metal
**************
Group: Металариец
Posts: 10,767
Releases: 1358
From: Одесса
On Forums: 14 years 5 months
Thanks: 32750 time(s)
Ukraine


(IMG:http://metalarea.org/images/audiocovers/2022_Jan/acov_tid360405_thumb.jpg)

*Artist: Fit For An Autopsy
*Album: Oh What The Future Holds
*Year: 2022
*Genre: Deathcore
*Country: United States (IMG:http://metalarea.org/forum/style_images/flags/United%20States.png)
*Format: mp3@CBR320kbps
*Size: 105MB

Tracklist:
01. Oh What the Future Holds 02:51
02. Pandora 04:36
03. Far From Heaven 04:44
04. In Shadows 03:57
05. Two Towers 05:46
06. A Higher Level of Hate 04:07
07. Collateral Damage 04:15
08. Savages 04:00
09. Conditional Healing 03:58
10. The Man That I Was Not 06:54
******************************
Total playing time: 45:08


(IMG:http://metalarea.org/images/youtube.png)


Technical info
(IMG:http://metalarea.org/images/spectrogram/2022_Jan/bfc190671c41b6ddca450ef22275e641.png)
Input File: 02 - Pandora.mp3
Channels : 2
Sample Rate : 44100
Precision : 16-bit
Duration : 00:04:36.00 = 12171600 samples = 20700 CDDA sectors
File Size : 11.3M
Bit Rate : 328k
Sample Encoding: MPEG audio (layer I, II or III)
Comments :
Title=Pandora
Artist=Fit For An Autopsy
Album=Oh What the Future Holds
Tracknumber=2
Year=2022-01-14
Discnumber=1



Register


Go to the top of the page
  Insert nick Quick quote
+Quote Post
 
Start new topic
Replies (1 - 4)
post Yesterday, 10:33:41
Post #2

melofags sniper
**************
Group: Металариец
Posts: 6,632
Releases: 0
On Forums: 13 years 10 months
Thanks: 7494 time(s)
Sudan


Fit for the trash. Terrible music.
Go to the top of the page
  Insert nick Quick quote
+Quote Post
post Yesterday, 18:13:04
Post #3

Ледоруб
**************
Group: Металариец
Posts: 29,518
Releases: 0
From: Санкт-Петербург
On Forums: 12 years 4 months
Thanks: 10594 time(s)
Russian Federation


Бабангида представился.
Go to the top of the page
  Insert nick Quick quote
+Quote Post
post Yesterday, 18:40:00
Post #4

melofags sniper
**************
Group: Металариец
Posts: 6,632
Releases: 0
On Forums: 13 years 10 months
Thanks: 7494 time(s)
Sudan


QUOTE(6666666 @ Jan 15 2022, 18:13:04) *
Бабангида представился.

I was introducing you and your relatives. And I did a strike.
Go to the top of the page
  Insert nick Quick quote
+Quote Post
post Today, 13:18:18
Post #5

Два Литра
**
Group: Завсегдатай
Posts: 109
Releases: 3
From: Украина
On Forums: 3 years 5 months
Thanks: 56 time(s)
Ukraine


03. Far From Heaven (IMG:style_emoticons/default/metaler.gif)
Go to the top of the page
  Insert nick Quick quote
+Quote Post

Reply to this topicStart new topic
1 User(s) are reading this topic (1 Guests and 0 Anonymous Users)
0 Members:

 



- Lo-Fi Version Support form
Copyrights and abuse reports form
Time is now: 16th January 2022 - 20:01:02