Welcome Guest ( Log In | Register )

> Releases Upload / Добавление релизов

Добавить релиз тут / Click here to add release
Рекомендованные обменники / Recommended file shares

> Enterprise Earth - The Chosen (2022), Deathcore (D6)
post Jan 13 2022, 11:41:20
Post #1

Serial Uploader
Group Icon
Group: V.I.P
Posts: 38,097
Releases: 36253
From: Lithuania
On Forums: 13 years 7 months
Thanks: 443685 time(s)
Lithuania


(IMG:https://metalarea.org/images/audiocovers/2022_Jan/acov_tid360409_thumb.jpg)

*Artist: Enterprise Earth
*Album: The Chosen
*Year: 2022
*Genre: Deathcore
*Country: United States (IMG:https://metalarea.org/forum/style_images/flags/United%20States.png)
*Format: mp3@CBR320kbps
*Size: 160MB

Tracklist:
01. Where Dreams Are Broken 5:21
02. Reanimate / Disintegrate 6:11
03. Unleash Hell 6:05
04. I Have to Escape 3:35
05. The Tower 1:18
06. They Have No Honor 4:21
07. Overpass 7:47
08. You Couldn't Save Me 5:57
09. Unhallowed Path 1:29
10. Legends Never Die 4:29
11. My Blood, Their Satiation 5:43
12. Skeleton Key 4:02
13. The Chosen 8:34
14. Atlas 2:53
******************************
Total playing time: 1:07:45



(IMG:https://metalarea.org/images/youtube.png)

Technical info
(IMG:https://metalarea.org/images/spectrogram/2022_Jan/a8d41bce019251bd1f007a830f53c81c.png)
Input File: 02 - Reanimate __ Disintegrate.mp3
Channels : 2
Sample Rate : 44100
Precision : 16-bit
Duration : 00:06:11.00 = 16361100 samples = 27825 CDDA sectors
File Size : 15.2M
Bit Rate : 327k
Sample Encoding: MPEG audio (layer I, II or III)
Comments :
Title=Reanimate // Disintegrate
Artist=Enterprise Earth
Album=The Chosen
Tracknumber=2
Year=2022-01-14
Genre=Rock
Discnumber=1



Register


Go to the top of the page
  Insert nick Quick quote
+Quote Post
 
Start new topic
Replies (1 - 1)
post Jan 14 2022, 18:38:43
Post #2

Тридцать лет на борту "Тяжёлого" крейсера
**************
Group: Металариец
Posts: 2,787
Releases: 0
From: Питер
On Forums: 14 years 7 months
Thanks: 874 time(s)
Russian Federation


Зачетная работа
Местами металкором приправили, мелодики прибавили
Воодушевляющий диск
Go to the top of the page
  Insert nick Quick quote
+Quote Post

Reply to this topicStart new topic
2 User(s) are reading this topic (2 Guests and 0 Anonymous Users)
0 Members:

 



- Lo-Fi Version Support form
Copyrights and abuse reports form
Time is now: 29th January 2022 - 08:29:40