Welcome Guest ( Log In | Register )

> Spartan - Of Kings And Gods (2022), Melodic Death Metal
post Jan 13 2022, 11:49:21
Post #1

Маньяк
**********
Group: Металариец
Posts: 1,094
Releases: 934
On Forums: 1 year 4 weeks
Thanks: 24539 time(s)
United States


(IMG:http://metalarea.org/images/audiocovers/2022_Jan/acov_tid360412_thumb.jpg)

*Artist: Spartan
*Album: Of Kings And Gods
*Year: 2022
*Genre: Melodic Death Metal
*Country: Netherlands (IMG:http://metalarea.org/forum/style_images/flags/Netherlands.png)
*Format: mp3@CBR320kbps
*Size: 93MB

Tracklist:
01. The Fires Of Helios (Intro)
02. Prometheus
03. Birth Of A God (Alexander Part 1)
04. A Siren Song (Odysseus Part 2)
05. The Trial
06. Son Of Kronos (Interlude)
07. King Of The Pantheon
08. Supremacy
09. Tomb Of The Great (Alexander Part 2)
10. Kingdom Of The Dead (Odysseus Part 1)
******************************
Total playing time: 36:51



Technical info
(IMG:http://metalarea.org/images/spectrogram/2022_Jan/5cc8a9e3d4db6f7dee0dddc366e133dc.png)
Input File: 02. Prometheus.mp3
Channels : 2
Sample Rate : 44100
Precision : 16-bit
Duration : 00:05:11.00 = 13715100 samples = 23325 CDDA sectors
File Size : 12.7M
Bit Rate : 326k
Sample Encoding: MPEG audio (layer I, II or III)
Comments :
Title=Prometheus
Artist=Spartan
Album=Of Kings and Gods
Tracknumber=2
Year=2022-01-14
Genre=Alternative
Discnumber=1



Register


Go to the top of the page
  Insert nick Quick quote
+Quote Post
 
Start new topic
Replies (1 - 6)
post Jan 14 2022, 19:08:24
Post #2

Тридцать лет на борту "Тяжёлого" крейсера
**************
Group: Металариец
Posts: 2,863
Releases: 0
From: Питер
On Forums: 14 years 11 months
Thanks: 900 time(s)
Russian Federation


Недурно, нормально пацаны рубят
Go to the top of the page
  Insert nick Quick quote
+Quote Post
post Jan 15 2022, 09:40:06
Post #3

Old School Metal
**************
Group: Металариец
Posts: 4,385
Releases: 0
From: г. Минск
On Forums: 13 years 2 months
Thanks: 11265 time(s)
Belarus


Lossless: FLAC (tracks)
Register


Thanks:
(1) Olethros,
Go to the top of the page
  Insert nick Quick quote
+Quote Post
post Jan 16 2022, 14:32:01
Post #4

Group: Подсевший
Posts: 36
Releases: 0
On Forums: 13 years 2 months
Thanks: 19 time(s)
Ukraine


Так це ж Тарас Бульба!!!
(IMG:https://info-shkola.ru/wp-content/uploads/2013/10/Тарас-Бульба.png)
Go to the top of the page
  Insert nick Quick quote
+Quote Post
post Jan 17 2022, 10:24:21
Post #5

0%Tolerance
***********
Group: Металариец
Posts: 1,842
Releases: 0
On Forums: 9 years 8 months
Thanks: 392 time(s)
Unknown


Прокатит раз послушать.
Go to the top of the page
  Insert nick Quick quote
+Quote Post
post Jan 30 2022, 12:58:00
Post #6

Перевозчик
**************
Group: Металариец
Posts: 3,411
Releases: 0
On Forums: 13 years 10 months
Thanks: 759 time(s)
Russian Federation


Рубят мощно, но тоже думаю, что на раз такое. Не за что там уху зацепиться настолько, чтобы захотелось переслушивать.
Go to the top of the page
  Insert nick Quick quote
+Quote Post
post Feb 24 2022, 08:13:40
Post #7

Ъ
**************
Group: Металариец
Posts: 10,976
Releases: 9
On Forums: 13 years 4 months
Thanks: 2211 time(s)
Sweden


Третьесорт, на раз послушать пойдет, дебютник в свое время был интереснее.
Go to the top of the page
  Insert nick Quick quote
+Quote Post

Reply to this topicStart new topic
1 User(s) are reading this topic (1 Guests and 0 Anonymous Users)
0 Members:

 



- Lo-Fi Version Support form
Copyrights and abuse reports form
Time is now: 25th May 2022 - 20:15:45