Welcome Guest ( Log In | Register )

> Releases Upload / Добавление релизов

Добавить релиз тут / Click here to add release
Рекомендованные обменники / Recommended file shares

> Eradication Of The Unworthy Infants - Change Is Good (2022), Brutal Death Metal/Grindcore
post Jan 13 2022, 12:51:37
Post #1

Восемь Литров
********
Group: Металариец
Posts: 883
Releases: 739
On Forums: 9 months 3 days
Thanks: 18542 time(s)
United States


(IMG:http://metalarea.org/images/audiocovers/2022_Jan/acov_tid360421_thumb.jpg)

*Artist: Eradication Of The Unworthy Infants
*Album: Change Is Good
*Year: 2022
*Genre: Brutal Death Metal/Grindcore
*Country: Finland (IMG:http://metalarea.org/forum/style_images/flags/Finland.png)
*Format: mp3@CBR320kbps
*Size: 86MB

Tracklist:
01. In The Dust
02. Sacrilege
03. Blastocyst
04. Watching It Fall
05. Dues
06. Among The Hordes
07. Crocodile Tears
08. Inhumane
09. Nuclear Meltdown
10. Calamity
11. Dissociative
12. Eradication Of The Unworthy Infants
******************************
Total playing time: 34:05



Technical info
(IMG:http://metalarea.org/images/spectrogram/2022_Jan/f14f290b5cb995804c9905315f61594d.png)
Input File: 02. Sacrilege.mp3
Channels : 2
Sample Rate : 44100
Precision : 16-bit
Duration : 00:02:36.98 = 6922862 samples = 11773.6 CDDA sectors
File Size : 6.44M
Bit Rate : 328k
Sample Encoding: MPEG audio (layer I, II or III)
Comments :
Title=Sacrilege
Artist=Eradication Of The Unworthy Infants
Album=Change Is Good
Tracknumber=02/12
Year=2022
Genre=Metal



Register


Go to the top of the page
  Insert nick Quick quote
+Quote Post
 
Start new topic
Replies (1 - 2)
post Jan 14 2022, 19:56:01
Post #2

hearer & reader
**************
Group: Металариец
Posts: 10,082
Releases: 183
From: Moscow
On Forums: 14 years 4 months
Thanks: 11679 time(s)
Russian Federation


Joonas Honkanen - Guitars, Bass (Finland)
Jad Batrouny - Vocals, Drums (USA)
https://music.yandex.ru/album/18529093
Не особо интересно.
Go to the top of the page
  Insert nick Quick quote
+Quote Post
post Jan 15 2022, 09:17:37
Post #3

Маньяк
**********
Group: Металариец
Posts: 1,373
Releases: 1
From: APATIN, SERBIA, АПАТИН, СЕРБИЯ
On Forums: 14 years 3 months
Thanks: 3611 time(s)



Flac

Register


Thanks:
(1) Olethros,
Go to the top of the page
  Insert nick Quick quote
+Quote Post

Reply to this topicStart new topic
2 User(s) are reading this topic (2 Guests and 0 Anonymous Users)
0 Members:

 



- Lo-Fi Version Support form
Copyrights and abuse reports form
Time is now: 29th January 2022 - 09:01:30