Welcome Guest ( Log In | Register )

> Corbian - Chapter Ii [ep] (2022), Melodic Death Metal
post Jan 13 2022, 13:04:41
Post #1

Маньяк
**********
Group: Металариец
Posts: 1,094
Releases: 934
On Forums: 1 year 2 months
Thanks: 24643 time(s)
United States


(IMG:http://metalarea.org/images/audiocovers/2022_Jan/acov_tid360424_thumb.jpg)

*Artist: Corbian
*Album: Chapter Ii [ep]
*Year: 2022
*Genre: Melodic Death Metal
*Country: Germany (IMG:http://metalarea.org/forum/style_images/flags/Germany.png)
*Format: mp3@CBR320kbps
*Size: 82MB

Tracklist:
01. Lilith
02. Veritas
03. Karma
04. Bonded
05. Lykaion
06. Nunfuckers
07. Atlas
******************************
Total playing time: 29:31




Technical info
(IMG:http://metalarea.org/images/spectrogram/2022_Jan/7a0f1a4c7248b2001caa2dfea55fe683.png)
Input File: 02. Veritas (feat. In Dying Lights).mp3
Channels : 2
Sample Rate : 44100
Precision : 16-bit
Duration : 00:05:51.27 = 15490787 samples = 26344.9 CDDA sectors
File Size : 15.3M
Bit Rate : 349k
Sample Encoding: MPEG audio (layer I, II or III)
Comments :
Title=Veritas (feat. In Dying Lights)
Artist=Corbian
Album=Chapter II (EP)
Tracknumber=02/07
Year=2022
Genre=Metal



Register


Go to the top of the page
  Insert nick Quick quote
+Quote Post
 
Start new topic
Replies (1 - 2)
post Jan 14 2022, 19:12:55
Post #2

Ёлд ХеллоВяйне
Group Icon
Group: V.I.P
Posts: 33,257
Releases: 144
From: Питер
On Forums: 15 years 8 months
Thanks: 20930 time(s)
Russian Federation


Go to the top of the page
  Insert nick Quick quote
+Quote Post
post Jan 23 2022, 11:41:54
Post #3

Old School Metal
**************
Group: Металариец
Posts: 4,458
Releases: 0
From: г. Минск
On Forums: 13 years 3 months
Thanks: 11573 time(s)
Belarus


Lossless: FLAC (tracks)
Register


Thanks:
Go to the top of the page
  Insert nick Quick quote
+Quote Post

Reply to this topicStart new topic
1 User(s) are reading this topic (1 Guests and 0 Anonymous Users)
0 Members:

 



- Lo-Fi Version Support form
Copyrights and abuse reports form
Time is now: 6th July 2022 - 16:40:43