Welcome Guest ( Log In | Register )

 
Reply to this topicStart new topic
> Infernal Hate - The Order Of The Black Kestrel (2021), Brutal Death Metal (D)
post Jan 13 2022, 13:32:36
Post #1

Правь статус, ####!111
**************
Group: Металариец
Posts: 29,954
Releases: 22044
From: Г.Харьков
On Forums: 10 years 3 months
Thanks: 458700 time(s)
Unknown


(IMG:https://metalarea.org/images/audiocovers/2022_Jan/acov_tid360425_thumb.jpg)

*Artist: Infernal Hate
*Album: The Order Of The Black Kestrel
*Year: 2021
*Genre: Brutal Death Metal
*Country: Spain (IMG:https://metalarea.org/forum/style_images/flags/Spain.png)
*Format: mp3@CBR320kbps
*Size: 71MB

Tracklist:
1. Aprositus
2. Black Crows Over The Horizon
3. Ex Nihilo
4. Lies Against Humanity
5. Vulcanoapocalipsis
6. The Hidden Knife
7. I Sovereign
8. Empirical Knowledge
******************************
Total playing time: 31:01




Technical info
(IMG:https://metalarea.org/images/spectrogram/2022_Jan/a71a9119ab37628c0e2433613121b804.png)
Input File: 08 - Empirical Knowledge.mp3
Channels : 2
Sample Rate : 44100
Precision : 16-bit
Duration : 00:05:18.08 = 14027504 samples = 23856.3 CDDA sectors
File Size : 12.8M
Bit Rate : 323k
Sample Encoding: MPEG audio (layer I, II or III)
Comments :
Title=Empirical Knowledge
Artist=Infernal Hate
Album=The Order of the Black Kestrel
Tracknumber=8/8
Year=2021



Register


Thanks:
Go to the top of the page
  Insert nick Quick quote
+Quote Post

Reply to this topicStart new topic
1 User(s) are reading this topic (1 Guests and 0 Anonymous Users)
0 Members:

 



- Lo-Fi Version Support form
Copyrights and abuse reports form
Time is now: 17th August 2022 - 08:37:07