Welcome Guest ( Log In | Register )

> Tristan Harders' Twilight Theatre - Drifting Into Insanity (2022), Epic Power Metal
post Jan 13 2022, 13:44:58
Post #1

Serial Uploader
Group Icon
Group: V.I.P
Posts: 38,480
Releases: 36627
From: Lithuania
On Forums: 13 years 11 months
Thanks: 453257 time(s)
Lithuania


(IMG:https://metalarea.org/images/audiocovers/2022_Jan/acov_tid360426_thumb.jpg)

*Artist: Tristan Harders' Twilight Theatre
*Album: Drifting Into Insanity
*Year: 2022
*Genre: Epic Power Metal
*Country: Germany (IMG:https://metalarea.org/forum/style_images/flags/Germany.png)
*Format: mp3@CBR320kbps
*Size: 119MB

Tracklist:
01. Entrance 00:30
02. The End 05:09
03. Open the Gates 04:24
04. Rise against the Tyranny 04:15
05. Halls of Glory 04:44
06. Interlude in G# minor 01:19
07. Quest into the Mountains of Steel 04:46
08. When Fairytales are gone 05:16
09. In the Realms of Memories 04:19
10. Back to Avalon 05:17
11. Save me from Insanity (feat. Gabriel Tuxen) 05:09
12. Between the Battles 03:44
******************************
Total playing time: 48:52


Preview 2
(IMG:https://metalarea.org/images/youtube.png)

Technical info
(IMG:https://metalarea.org/images/spectrogram/2022_Jan/10c96a0079180d1a75523294f2151ce0.png)
Input File: 02 - The End.mp3
Channels : 2
Sample Rate : 44100
Precision : 16-bit
Duration : 00:05:09.00 = 13626900 samples = 23175 CDDA sectors
File Size : 12.6M
Bit Rate : 326k
Sample Encoding: MPEG audio (layer I, II or III)
Comments :
Title=The End
Artist=Tristan Harders' Twilight Theatre
Album=Drifting Into Insanity
Tracknumber=2
Year=2022-01-14
Discnumber=1



Register


Go to the top of the page
  Insert nick Quick quote
+Quote Post
 
Start new topic
Replies (1 - 1)
post Jan 19 2022, 11:21:19
Post #2

MDM-Thrash Metal
**************
Group: Металариец
Posts: 11,101
Releases: 1484
From: Одесса
On Forums: 14 years 9 months
Thanks: 35231 time(s)
Ukraine


Рапсодия воршип.
Go to the top of the page
  Insert nick Quick quote
+Quote Post

Reply to this topicStart new topic
1 User(s) are reading this topic (1 Guests and 0 Anonymous Users)
0 Members:

 



- Lo-Fi Version Support form
Copyrights and abuse reports form
Time is now: 25th May 2022 - 20:13:30