Welcome Guest ( Log In | Register )

> My Lonely Sea - Nocturne (2022), Post-Black Metal (D4)
post Jan 13 2022, 15:14:48
Post #1

Serial Uploader
Group Icon
Group: V.I.P
Posts: 38,452
Releases: 36600
From: Lithuania
On Forums: 13 years 11 months
Thanks: 452638 time(s)
Lithuania


(IMG:https://metalarea.org/images/audiocovers/2022_Jan/acov_tid360433_thumb.jpg)

*Artist: My Lonely Sea
*Album: Nocturne
*Year: 2022
*Genre: Post-Black Metal
*Country: Russian Federation (IMG:https://metalarea.org/forum/style_images/flags/Russian%20Federation.png)
*Format: mp3@CBR320kbps
*Size: 131MB

Tracklist:
01. Througs the Thorns 03:14
02. The Sunlight 11:06
03. To Lose Myself in You 06:08
04. We Are the Ice 13:50
05. Sand in My Hand 11:34
06. Back Together 06:58
07. Cold Breath 03:55
******************************
Total playing time: 56:45


Preview 2


Technical info
(IMG:https://metalarea.org/images/spectrogram/2022_Jan/1e7e848a5fcae934043cde10cd01ae98.png)
Input File: 02 - The Sunlight.mp3
Channels : 2
Sample Rate : 44100
Precision : 16-bit
Duration : 00:11:06.35 = 29385815 samples = 49975.9 CDDA sectors
File Size : 26.8M
Bit Rate : 322k
Sample Encoding: MPEG audio (layer I, II or III)
Comments :
Title=The Sunlight
Artist=My Lonely Sea
Album=Nocturne
Tracknumber=2
Year=2022
Discnumber=1/1



Register


Go to the top of the page
  Insert nick Quick quote
+Quote Post
 
Start new topic
Replies (1 - 5)
post Jan 14 2022, 18:48:29
Post #2

Ёлд ХеллоВяйне
Group Icon
Group: V.I.P
Posts: 33,198
Releases: 144
From: Питер
On Forums: 15 years 6 months
Thanks: 20873 time(s)
Russian Federation




Thanks:
(1) rominow,
Go to the top of the page
  Insert nick Quick quote
+Quote Post
post Jan 14 2022, 19:27:34
Post #3

Ледоруб
**************
Group: Металариец
Posts: 30,123
Releases: 0
From: Санкт-Петербург
On Forums: 12 years 8 months
Thanks: 10797 time(s)
Russian Federation


Достойно?
Go to the top of the page
  Insert nick Quick quote
+Quote Post
post Jan 14 2022, 19:41:19
Post #4

Ёлд ХеллоВяйне
Group Icon
Group: V.I.P
Posts: 33,198
Releases: 144
From: Питер
On Forums: 15 years 6 months
Thanks: 20873 time(s)
Russian Federation


QUOTE(6666666 @ 14th January 2022 - 21:27:34) *
Достойно


всяческого порицания спрашивать об этом, если сам можешь судить по превью.

Но вообще точно не на коленке сделано, мощь, размах. Зайдёт ли мелодически?.. см. превью.
Go to the top of the page
  Insert nick Quick quote
+Quote Post
post Jan 19 2022, 11:25:34
Post #5

MDM-Thrash Metal
**************
Group: Металариец
Posts: 11,062
Releases: 1466
From: Одесса
On Forums: 14 years 9 months
Thanks: 35034 time(s)
Ukraine


Go to the top of the page
  Insert nick Quick quote
+Quote Post
post Apr 5 2022, 10:08:35
Post #6

FOLK METAL FEVER
**************
Group: Металариец
Posts: 2,291
Releases: 6
From: Kyiv
On Forums: 14 years 6 months
Thanks: 300 time(s)
Ukraine


ЦИТАТА(6666666 @ Jan 14 2022, 21:27:34) *
Достойно?


та таке собі.
Go to the top of the page
  Insert nick Quick quote
+Quote Post

Reply to this topicStart new topic
1 User(s) are reading this topic (1 Guests and 0 Anonymous Users)
0 Members:

 



- Lo-Fi Version Support form
Copyrights and abuse reports form
Time is now: 18th May 2022 - 13:07:19