Welcome Guest ( Log In | Register )

 
Reply to this topicStart new topic
> Bloody Death - Destruyendo Los Mitos (2022), Death Metal
post Jan 13 2022, 17:14:28
Post #1

Serial Uploader
Group Icon
Group: V.I.P
Posts: 38,607
Releases: 36751
From: Lithuania
On Forums: 14 years 3 weeks
Thanks: 456057 time(s)
Lithuania


(IMG:https://metalarea.org/images/audiocovers/2022_Jan/acov_tid360441_thumb.jpg)

*Artist: Bloody Death
*Album: Destruyendo Los Mitos
*Year: 2022
*Genre: Death Metal
*Country: Colombia (IMG:https://metalarea.org/forum/style_images/flags/Colombia.png)
*Format: mp3@CBR320kbps
*Size: 57MB

Tracklist:
01. Usurpador del Trono
02. Blood's Generation
03. En el Lado del Mal
04. The Psychotic Sound
05. Cementerio
06. Pure Fucking Violence-Evil Race
07. Asquerosa Realidad
******************************
Total playing time: 24:49

(IMG:https://metalarea.org/images/myspace.png)



(IMG:https://metalarea.org/images/youtube.png)

Extended info
Recorded in 2016, released in 2022.


Technical info
(IMG:https://metalarea.org/images/spectrogram/2022_Jan/4affac659e8d4004cd53522771940801.png)
Input File: 02. Blood\'s Generation.mp3
Channels : 2
Sample Rate : 44100
Precision : 16-bit
Duration : 00:02:29.95 = 6612971 samples = 11246.5 CDDA sectors
File Size : 6.11M
Bit Rate : 326k
Sample Encoding: MPEG audio (layer I, II or III)
Comments :
Title=Blood's Generation
Artist=Bloody Death
Album=Destruyendo los Mitos
Tracknumber=2
Year=2022
Discnumber=1



Register


Go to the top of the page
  Insert nick Quick quote
+Quote Post

Reply to this topicStart new topic
1 User(s) are reading this topic (1 Guests and 0 Anonymous Users)
0 Members:

 



- Lo-Fi Version Support form
Copyrights and abuse reports form
Time is now: 5th July 2022 - 08:37:20