Welcome Guest ( Log In | Register )

> Releases Upload / Добавление релизов

Добавить релиз тут / Click here to add release
Рекомендованные обменники / Recommended file shares

> Blasphemous Rumours - Blaspheming Instinctively [ep] (2022), Raw Black Metal/Electronic
post Jan 13 2022, 17:48:02
Post #1

Правь статус, ####!111
**************
Group: Металариец
Posts: 4,576
Releases: 4210
From: Одесса
On Forums: 13 years 7 months
Thanks: 46911 time(s)
Ukraine


(IMG:http://metalarea.org/images/audiocovers/2022_Jan/acov_tid360442_thumb.jpg)

*Artist: Blasphemous Rumours
*Album: Blaspheming Instinctively [ep]
*Year: 2022
*Genre: Raw Black Metal/Electronic
*Country: United States (IMG:http://metalarea.org/forum/style_images/flags/United%20States.png)
*Format: mp3@CBR320kbps
*Size: 42MB

Tracklist:
1. Euphoric Hallucination 02:03
2. Witching Vortex 05:55
3. Madness Spreading 02:33
4. Unnatural Desires 07:08
******************************
Total playing time: 17:39



Technical info
(IMG:http://metalarea.org/images/spectrogram/2022_Jan/fe96c947f84ea39e998612a997cb6037.png)
Input File: 01. Euphoric Hallucination.mp3
Channels : 2
Sample Rate : 44100
Precision : 16-bit
Duration : 00:02:03.67 = 5453979 samples = 9275.47 CDDA sectors
File Size : 4.95M
Bit Rate : 320k
Sample Encoding: MPEG audio (layer I, II or III)
Comments :
Title=Euphoric Hallucination
Artist=Blasphemous Rumours
Album=Blaspheming Instinctively (EP)
Tracknumber=1
Year=2022
Genre=Raw Black Metal, Electronic



Register


Go to the top of the page
  Insert nick Quick quote
+Quote Post
 
Start new topic
Replies (1 - 2)
post Jan 17 2022, 08:42:02
Post #2

0%Tolerance
***********
Group: Металариец
Posts: 1,637
Releases: 0
On Forums: 9 years 4 months
Thanks: 320 time(s)
Unknown


Хренотень.


Thanks:
(2) judaz, Storky,
Go to the top of the page
  Insert nick Quick quote
+Quote Post
post Jan 17 2022, 19:00:20
Post #3

кручу наждак
**************
Group: Металариец
Posts: 5,358
Releases: 104
From: Самара
On Forums: 11 years 8 months
Thanks: 4257 time(s)
Russian Federation


Музыки тут от силы минуты на две.
Весь прочий хронометраж занимают какие-то отстойные шумовые эффекты.
Go to the top of the page
  Insert nick Quick quote
+Quote Post

Reply to this topicStart new topic
2 User(s) are reading this topic (2 Guests and 0 Anonymous Users)
0 Members:

 



- Lo-Fi Version Support form
Copyrights and abuse reports form
Time is now: 22nd January 2022 - 19:25:13