Welcome Guest ( Log In | Register )

 
Reply to this topicStart new topic
> Tol Galen - Fortress Of The Necromancer [ep] (2022), Epic/Atmospheric Black Metal
post Jan 13 2022, 17:58:40
Post #1

Правь статус, ####!111
**************
Group: Металариец
Posts: 5,097
Releases: 4684
From: Одесса
On Forums: 13 years 11 months
Thanks: 54438 time(s)
Ukraine


(IMG:http://metalarea.org/images/audiocovers/2022_Jan/acov_tid360443_thumb.jpg)

*Artist: Tol Galen
*Album: Fortress Of The Necromancer [ep]
*Year: 2022
*Genre: Epic/Atmospheric Black Metal
*Country: Russian Federation (IMG:http://metalarea.org/forum/style_images/flags/Russian%20Federation.png)
*Format: mp3@CBR320kbps
*Size: 51MB

Tracklist:
1. Fortress of the Necromancer 06:27
2. Forest Path 04:19
3. Fortress of the Necromancer 06:27 instrumental
4. Forest Path 04:19 instrumental
******************************
Total playing time: 21:32



Technical info
(IMG:http://metalarea.org/images/spectrogram/2022_Jan/1964ad422ad9261a706f406d989e9c22.png)
Input File: 01. Fortress of the Necromancer.mp3
Channels : 2
Sample Rate : 44100
Precision : 16-bit
Duration : 00:06:27.97 = 17109433 samples = 29097.7 CDDA sectors
File Size : 15.5M
Bit Rate : 320k
Sample Encoding: MPEG audio (layer I, II or III)
Comments :
Title=Fortress of the Necromancer
Artist=Tol Galen
Album=Fortress of the Necromancer (EP)
Tracknumber=1
Year=2022
Genre=Epic | Atmospheric Black Metal



Register


Go to the top of the page
  Insert nick Quick quote
+Quote Post

Reply to this topicStart new topic
1 User(s) are reading this topic (1 Guests and 0 Anonymous Users)
0 Members:

 



- Lo-Fi Version Support form
Copyrights and abuse reports form
Time is now: 29th May 2022 - 07:26:49