Welcome Guest ( Log In | Register )

> Releases Upload / Добавление релизов

Добавить релиз тут / Click here to add release
Рекомендованные обменники / Recommended file shares

 
Reply to this topicStart new topic
> Buffalo - Volcanic Rock Live [live] (2022), Hard Rock/Heavy Metal (D)
post Jan 13 2022, 19:05:57
Post #1

Правь статус, ####!111
**************
Group: Металариец
Posts: 4,575
Releases: 4210
From: Одесса
On Forums: 13 years 7 months
Thanks: 46909 time(s)
Ukraine


(IMG:http://metalarea.org/images/audiocovers/2022_Jan/acov_tid360446_thumb.jpg)

*Artist: Buffalo
*Album: Volcanic Rock Live [live]
*Year: 2022
*Genre: Hard Rock/Heavy Metal
*Country: Australia (IMG:http://metalarea.org/forum/style_images/flags/Australia.png)
*Format: mp3@CBR320kbps
*Size: 84MB

Tracklist:
1. Sunrise (Come My Way)
2. Freedom
3. Til My Death
4. The Prophet
5. I - Pound of Flesh II - Shylock
******************************
Total playing time: 35:26



Extended info
Line - up:

Dave Tice Vocals (lead) - Dave Tice Band, Tice & Evans, ex-Dave Tice, ex-Head (Aus), ex-Original Plastic Foot, ex-Strange Brew, ex-The Capitol Show Band, ex-The Count Bishops, ex-The Headhunters, ex-The Odd Colours)
Jimmy Economou - Drums
Ross Sims - Bass
Chris Turner - Guitars (ex-$cattered Aces, ex-Rose Tattoo)


Technical info
(IMG:http://metalarea.org/images/spectrogram/2022_Jan/fac6577202ed7f39d492fea0909b516e.png)
Input File: 03. Til My Death.mp3
Channels : 2
Sample Rate : 44100
Precision : 16-bit
Duration : 00:05:16.39 = 13952755 samples = 23729.2 CDDA sectors
File Size : 12.7M
Bit Rate : 320k
Sample Encoding: MPEG audio (layer I, II or III)
Comments :
Title=Til My Death
Artist=Buffalo
Album=Volcanic Rock Live (Live)
Tracknumber=3
Year=2022
Genre=Hard Rock | Heavy Metal



Register


Go to the top of the page
  Insert nick Quick quote
+Quote Post

Reply to this topicStart new topic
1 User(s) are reading this topic (1 Guests and 0 Anonymous Users)
0 Members:

 



- Lo-Fi Version Support form
Copyrights and abuse reports form
Time is now: 22nd January 2022 - 18:45:03