Welcome Guest ( Log In | Register )

> Releases Upload / Добавление релизов

Добавить релиз тут / Click here to add release
Рекомендованные обменники / Recommended file shares

 
Reply to this topicStart new topic
> Shedfromthebody - To Hold The Ripened Sun (2021), Shoegaze/Post-Metal/Doom Metal/Ethereal Wave
post Jan 13 2022, 19:10:08
Post #1

практики шума одухотворяющего
**************
Group: Металариец
Posts: 3,220
Releases: 107
From: Хроник дисмЭмбера
On Forums: 4 years 3 days
Thanks: 4622 time(s)
Russian Federation


(IMG:https://metalarea.org/images/audiocovers/2022_Jan/acov_tid360447_thumb.jpg)

*Artist: Shedfromthebody
*Album: To Hold The Ripened Sun
*Year: 2021
*Genre: Shoegaze/Post-Metal/Doom Metal/Ethereal Wave
*Country: Finland (IMG:https://metalarea.org/forum/style_images/flags/Finland.png)
*Format: mp3@CBR320kbps
*Size: 107MB

Tracklist:
1.It Grows Tall 03:12
2.We'll Be Lifting Our Arms to the Sky in Joy and Wonder 04:26
3.The Hollowing of Girls 03:28
4.Hours 06:17
5.In the Pines 03:50
6.Aino (Interlude) 01:21
7.Fascia 04:14
8.Irti 04:18
9.Shrines 05:40
10.Halfsorrow 04:13
11.To Hold The Ripened Sun 04:01
******************************
Total playing time: 45:00



Extended info


Technical info
(IMG:https://metalarea.org/images/spectrogram/2022_Jan/8a6e8cf302bc372c4e383bd5490a0cd5.png)
Input File: 2. Shedfromthebody - We\'ll Be Lifting Our Arms To the Sky in Joy and Wonder.mp3
Channels : 2
Sample Rate : 44100
Precision : 16-bit
Duration : 00:04:26.08 = 11733908 samples = 19955.6 CDDA sectors
File Size : 11.0M
Bit Rate : 330k
Sample Encoding: MPEG audio (layer I, II or III)
Comments :
Title=We'll Be Lifting Our Arms To the Sky in Joy and Wonder
Artist=Shedfromthebody
Album=To Hold The Ripened Sun
Tracknumber=2/11
Year=2021
Discnumber=1/1



Register


Go to the top of the page
  Insert nick Quick quote
+Quote Post

Reply to this topicStart new topic
1 User(s) are reading this topic (1 Guests and 0 Anonymous Users)
0 Members:

 



- Lo-Fi Version Support form
Copyrights and abuse reports form
Time is now: 22nd January 2022 - 19:00:39