Welcome Guest ( Log In | Register )

> Shedfromthebody - To Hold The Ripened Sun (2021), Shoegaze/Post-Metal/Doom Metal/Ethereal Wave
post Jan 13 2022, 19:10:08
Post #1

практики шума одухотворяющего
**************
Group: Металариец
Posts: 3,400
Releases: 113
From: Пурпурного моря
On Forums: 4 years 4 months
Thanks: 5073 time(s)
Russian Federation


(IMG:https://metalarea.org/images/audiocovers/2022_Jan/acov_tid360447_thumb.jpg)

*Artist: Shedfromthebody
*Album: To Hold The Ripened Sun
*Year: 2021
*Genre: Shoegaze/Post-Metal/Doom Metal/Ethereal Wave
*Country: Finland (IMG:https://metalarea.org/forum/style_images/flags/Finland.png)
*Format: mp3@CBR320kbps
*Size: 107MB

Tracklist:
1.It Grows Tall 03:12
2.We'll Be Lifting Our Arms to the Sky in Joy and Wonder 04:26
3.The Hollowing of Girls 03:28
4.Hours 06:17
5.In the Pines 03:50
6.Aino (Interlude) 01:21
7.Fascia 04:14
8.Irti 04:18
9.Shrines 05:40
10.Halfsorrow 04:13
11.To Hold The Ripened Sun 04:01
******************************
Total playing time: 45:00



Extended info


Technical info
(IMG:https://metalarea.org/images/spectrogram/2022_Jan/8a6e8cf302bc372c4e383bd5490a0cd5.png)
Input File: 2. Shedfromthebody - We\'ll Be Lifting Our Arms To the Sky in Joy and Wonder.mp3
Channels : 2
Sample Rate : 44100
Precision : 16-bit
Duration : 00:04:26.08 = 11733908 samples = 19955.6 CDDA sectors
File Size : 11.0M
Bit Rate : 330k
Sample Encoding: MPEG audio (layer I, II or III)
Comments :
Title=We'll Be Lifting Our Arms To the Sky in Joy and Wonder
Artist=Shedfromthebody
Album=To Hold The Ripened Sun
Tracknumber=2/11
Year=2021
Discnumber=1/1



Register


Go to the top of the page
  Insert nick Quick quote
+Quote Post
 
Start new topic
Replies (1 - 4)
post Jan 27 2022, 17:51:21
Post #2

Девять Литров
*********
Group: Металариец
Posts: 932
Releases: 48
From: Ивантеевка, Московская область
On Forums: 14 years 5 months
Thanks: 1023 time(s)
Russian Federation


Отлично, просто замечательно. Не слышал ранее этот проект. Спасибо mirotvorets, (IMG:style_emoticons/default/9.gif)
Go to the top of the page
  Insert nick Quick quote
+Quote Post
post Jan 27 2022, 18:04:08
Post #3

Ледоруб
**************
Group: Металариец
Posts: 30,167
Releases: 0
From: Санкт-Петербург
On Forums: 12 years 8 months
Thanks: 10815 time(s)
Russian Federation


Если бы ещё он запощён был вовремя.
Go to the top of the page
  Insert nick Quick quote
+Quote Post
post Jan 27 2022, 18:57:11
Post #4

Маньяк
**********
Group: Металариец
Posts: 1,132
Releases: 57
From: Санкт-Петербург
On Forums: 16 years 5 days
Thanks: 3187 time(s)
Russian Federation


One-woman band? Ну не знаю... что-то подобное мне не попадалось ранее, есть ли смысл слушать или кустарщина какая-нибудь?
Go to the top of the page
  Insert nick Quick quote
+Quote Post
post Jan 27 2022, 19:01:10
Post #5

Правь статус, ####!111
**************
Group: Металариец
Posts: 50,654
Releases: 931
On Forums: 12 years 11 months
Thanks: 47381 time(s)
Russian Federation


ЦИТАТА(as71 @ Jan 27 2022, 20:57:11) *
One-woman band? Ну не знаю... что-то подобное мне не попадалось ранее,


Ну среди ван вименоф есть финская чернышная банда Anguished, от нее многие блэкеры кипятком писались в свое время. Это конечно редкость среди метала который преимущественно до сих пор мужланский все же жанр, но попробовать стоит, в конце концоф много ли ты времени потеряешь послушав один единственный тяж альбом?
Go to the top of the page
  Insert nick Quick quote
+Quote Post

Reply to this topicStart new topic
1 User(s) are reading this topic (1 Guests and 0 Anonymous Users)
0 Members:

 



- Lo-Fi Version Support form
Copyrights and abuse reports form
Time is now: 24th May 2022 - 19:53:22