Welcome Guest ( Log In | Register )

> Releases Upload / Добавление релизов

Добавить релиз тут / Click here to add release
Рекомендованные обменники / Recommended file shares

 
Reply to this topicStart new topic
> Toundra - Hex (2022), Instrumental Atmospheric Post-Metal/Rock (D8)
post Jan 13 2022, 19:38:58
Post #1

Правь статус, ####!111
**************
Group: Металариец
Posts: 4,575
Releases: 4210
From: Одесса
On Forums: 13 years 7 months
Thanks: 46911 time(s)
Ukraine


(IMG:http://metalarea.org/images/audiocovers/2022_Jan/acov_tid360448_thumb.jpg)

*Artist: Toundra
*Album: Hex
*Year: 2022
*Genre: Instrumental Atmospheric Post-Metal/Rock
*Country: Spain (IMG:http://metalarea.org/forum/style_images/flags/Spain.png)
*Format: mp3@CBR320kbps
*Size: 107MB

Tracklist:
1. El odio. Parte I 08:05
2. El odio. Parte II 06:44
3. El odio. Parte III 06:54
4. Ruinas 05:02
5. La larga marcha 05:50
6. Watt 07:51
7. Fin 04:58
******************************
Total playing time: 45:24

Extended info
Line - up:

Alberto - Bass
Esteban - Guitars
Alex Pérez - Drums
Macón - Guitars (El Páramo, Adrift, ex-Sou Edipo)






Technical info
(IMG:http://metalarea.org/images/spectrogram/2022_Jan/2c3aa15e1e39dfa2667ea1b1707d1c8a.png)
Input File: 06. Watt.mp3
Channels : 2
Sample Rate : 44100
Precision : 16-bit
Duration : 00:07:50.60 = 20753416 samples = 35294.9 CDDA sectors
File Size : 18.8M
Bit Rate : 320k
Sample Encoding: MPEG audio (layer I, II or III)
Comments :
Title=Watt
Artist=Toundra
Album=Hex
Tracknumber=6
Year=2022
Genre=Instrumental Atmospheric Post-Metal | Rock



Register


Go to the top of the page
  Insert nick Quick quote
+Quote Post

Reply to this topicStart new topic
1 User(s) are reading this topic (1 Guests and 0 Anonymous Users)
0 Members:

 



- Lo-Fi Version Support form
Copyrights and abuse reports form
Time is now: 22nd January 2022 - 19:10:34