Welcome Guest ( Log In | Register )

> Arsenic - Faith Is Gone (2022), Heavy Metal/Hard Rock (D13)
post Jan 13 2022, 20:32:32
Post #1

MDM-Thrash Metal
**************
Group: Металариец
Posts: 11,084
Releases: 1472
From: Одесса
On Forums: 14 years 9 months
Thanks: 35211 time(s)
Ukraine


(IMG:http://metalarea.org/images/audiocovers/2022_Jan/acov_tid360449_thumb.jpg)

*Artist: Arsenic
*Album: Faith Is Gone
*Year: 2022
*Genre: Heavy Metal/Hard Rock
*Country: Canada (IMG:http://metalarea.org/forum/style_images/flags/Canada.png)
*Format: mp3@CBR320kbps
*Size: 68MB

Tracklist:
01. Intro 00:22
02. Sick Of This 02:28
03. Die Alone 02:42
04. Against The Edge 02:55
05. Hold On 03:03
06. Madness 03:39
07. Hopeless 03:34
08. After The Darkness 03:21
09. Faith Is Gone 03:38
10. Jack The Ripper 03:14
******************************
Total playing time: 28:56


(IMG:http://metalarea.org/images/youtube.png)
(IMG:http://metalarea.org/images/youtube.png)
(IMG:http://metalarea.org/images/youtube.png)

Technical info
(IMG:http://metalarea.org/images/spectrogram/2022_Jan/fee062574aaba27119fe042f8791e12d.png)
Input File: 02 - Sick Of This.mp3
Channels : 2
Sample Rate : 44100
Precision : 16-bit
Duration : 00:02:27.00 = 6482700 samples = 11025 CDDA sectors
File Size : 6.06M
Bit Rate : 330k
Sample Encoding: MPEG audio (layer I, II or III)
Comments :
Title=Sick Of This
Artist=Arsenic
Album=Faith Is Gone
Tracknumber=2
Year=2022-01-11
Genre=Metal
Discnumber=1



Register


Go to the top of the page
  Insert nick Quick quote
+Quote Post
 
Start new topic
Replies (1 - 1)
post Jan 14 2022, 20:57:06
Post #2

hearer & reader
**************
Group: Металариец
Posts: 10,281
Releases: 211
From: Moscow
On Forums: 14 years 8 months
Thanks: 12389 time(s)
Russian Federation



https://music.yandex.ru/album/20601410
Дичь какая-то пионерская.
Go to the top of the page
  Insert nick Quick quote
+Quote Post

Reply to this topicStart new topic
1 User(s) are reading this topic (1 Guests and 0 Anonymous Users)
0 Members:

 



- Lo-Fi Version Support form
Copyrights and abuse reports form
Time is now: 25th May 2022 - 05:11:10