Welcome Guest ( Log In | Register )

> Deadscape - Of The Deepest Shade (2022), Melodic Death Metal
post Jan 13 2022, 21:49:17
Post #1

Маньяк
**********
Group: Металариец
Posts: 1,094
Releases: 934
On Forums: 1 year 4 weeks
Thanks: 24539 time(s)
United States


(IMG:https://metalarea.org/images/audiocovers/2022_Jan/acov_tid360451_thumb.jpg)

*Artist: Deadscape
*Album: Of The Deepest Shade
*Year: 2022
*Genre: Melodic Death Metal
*Country: Bulgaria (IMG:https://metalarea.org/forum/style_images/flags/Bulgaria.png)
*Format: mp3@CBR320kbps
*Size: 119MB

Tracklist:
01. To Ashes
02. Forsaken
03. The Brightest Light
04. The Artist
05. Stillborn
06. In Desolate Silence
07. As Seasons Change
08. Witherer
09. From the Colourless Skies
10. The Shadow of the Clouds
11. Ending
12. The Ever-Pouring Rain
******************************
Total playing time: 47:43



Extended info


Technical info
(IMG:https://metalarea.org/images/spectrogram/2022_Jan/337fd979c88ef215dd92a34350da4440.png)
Input File: 02. Forsaken.mp3
Channels : 2
Sample Rate : 44100
Precision : 16-bit
Duration : 00:04:31.77 = 11985057 samples = 20382.8 CDDA sectors
File Size : 11.0M
Bit Rate : 323k
Sample Encoding: MPEG audio (layer I, II or III)
Comments :
Title=Forsaken
Artist=Deadscape
Album=Of The Deepest Shade
Tracknumber=02/12
Year=2022
Genre=Metal



Register


Go to the top of the page
  Insert nick Quick quote
+Quote Post
 
Start new topic
Replies (1 - 4)
post Jan 14 2022, 19:06:47
Post #2

Тридцать лет на борту "Тяжёлого" крейсера
**************
Group: Металариец
Posts: 2,863
Releases: 0
From: Питер
On Forums: 14 years 11 months
Thanks: 900 time(s)
Russian Federation


Местами неплохо, вроде, но сыроват материал
Go to the top of the page
  Insert nick Quick quote
+Quote Post
post Jan 14 2022, 21:03:23
Post #3

Два Литра
**
Group: Завсегдатай
Posts: 123
Releases: 0
On Forums: 11 years 11 months
Thanks: 27 time(s)
Unknown


Что будет если Arch Enemy соеденить с Insomnium. Хз
Но слушать можно


Thanks:
(1) Metalass,
Go to the top of the page
  Insert nick Quick quote
+Quote Post
post Jan 15 2022, 15:19:04
Post #4

Old School Metal
**************
Group: Металариец
Posts: 4,385
Releases: 0
From: г. Минск
On Forums: 13 years 2 months
Thanks: 11264 time(s)
Belarus


Lossless: FLAC (tracks)
Register


Thanks:
Go to the top of the page
  Insert nick Quick quote
+Quote Post
post Jan 19 2022, 11:31:10
Post #5

MDM-Thrash Metal
**************
Group: Металариец
Posts: 11,101
Releases: 1484
From: Одесса
On Forums: 14 years 9 months
Thanks: 35227 time(s)
Ukraine




Go to the top of the page
  Insert nick Quick quote
+Quote Post

Reply to this topicStart new topic
1 User(s) are reading this topic (1 Guests and 0 Anonymous Users)
0 Members:

 



- Lo-Fi Version Support form
Copyrights and abuse reports form
Time is now: 25th May 2022 - 19:41:32