Welcome Guest ( Log In | Register )

> Releases Upload / Добавление релизов

Добавить релиз тут / Click here to add release
Рекомендованные обменники / Recommended file shares

> Sekoria - Seelenwanderung (2022), Epic Melodic Black Metal
post Jan 13 2022, 21:50:38
Post #1

Восемь Литров
********
Group: Металариец
Posts: 883
Releases: 739
On Forums: 9 months 3 days
Thanks: 18539 time(s)
United States


(IMG:https://metalarea.org/images/audiocovers/2022_Jan/acov_tid360453_thumb.jpg)

*Artist: Sekoria
*Album: Seelenwanderung
*Year: 2022
*Genre: Epic Melodic Black Metal
*Country: Germany (IMG:https://metalarea.org/forum/style_images/flags/Germany.png)
*Format: mp3@CBR320kbps
*Size: 131MB

Tracklist:
01. Morte Aeterna
02. Seelenwanderung
03. Todgeweihter
04. Vergänglich
05. Nachtmahr
06. Das Eigene Sein
07. Schwarz Wie Die Nacht
08. Der Wahnsinn
09. Entzweit
******************************
Total playing time: 52:12



Extended info


Technical info
(IMG:https://metalarea.org/images/spectrogram/2022_Jan/97783ee399543f25313d0d43443a025a.png)
Input File: 02. Seelenwanderung.mp3
Channels : 2
Sample Rate : 44100
Precision : 16-bit
Duration : 00:07:15.20 = 19192364 samples = 32640.1 CDDA sectors
File Size : 17.6M
Bit Rate : 324k
Sample Encoding: MPEG audio (layer I, II or III)
Comments :
Title=Seelenwanderung
Artist=Sekoria
Album=Seelenwanderung
Tracknumber=02/09
Year=2022
Genre=Black Metal



Register


Go to the top of the page
  Insert nick Quick quote
+Quote Post
 
Start new topic
Replies (1 - 7)
post Jan 16 2022, 16:58:19
Post #2

Common dweller of hell
**************
Group: Металариец
Posts: 4,205
Releases: 12
From: Dnipro
On Forums: 13 years 6 months
Thanks: 1654 time(s)
Ukraine


Знатные черти, может у кого LOSSLESS есть?
Go to the top of the page
  Insert nick Quick quote
+Quote Post
post Jan 16 2022, 18:14:08
Post #3

Шесть Литров
******
Group: Металариец
Posts: 629
Releases: 0
From: Москва
On Forums: 15 years 3 months
Thanks: 134 time(s)
Russian Federation


Отличный материал.
Go to the top of the page
  Insert nick Quick quote
+Quote Post
post Jan 17 2022, 14:20:58
Post #4

Шесть Литров
******
Group: Металариец
Posts: 651
Releases: 0
From: Лыткарино
On Forums: 2 years 8 months
Thanks: 172 time(s)
Russian Federation


Хороший альбом, но больше раскрывается к середине.
Go to the top of the page
  Insert nick Quick quote
+Quote Post
post Jan 17 2022, 16:18:07
Post #5

0%Tolerance
***********
Group: Металариец
Posts: 1,655
Releases: 0
On Forums: 9 years 4 months
Thanks: 326 time(s)
Unknown


Классная работа. Редкие атмосферные распевки, фортепианные партии, аккустика... очень уместно вклиниваются в основную структуру. По стилю скорее эпично-атмосферный блэк/мелодик блэк с правильным скримингом. Немецкий язык также в кассу. Тема Das Eigene Sein очень хороша!
Go to the top of the page
  Insert nick Quick quote
+Quote Post
post Jan 17 2022, 22:19:29
Post #6

Мегаманьяк
***********
Group: Металариец
Posts: 1,789
Releases: 295
On Forums: 13 years 2 months
Thanks: 6921 time(s)
Russian Federation


Spotify
Sekoria

ЦИТАТА(isvili @ 16th January 2022 - 18:58:19) *
может у кого LOSSLESS есть

FLAC tracks
Register


Thanks:
Go to the top of the page
  Insert nick Quick quote
+Quote Post
post Jan 19 2022, 11:56:03
Post #7

MDM-Thrash Metal
**************
Group: Металариец
Posts: 10,788
Releases: 1361
From: Одесса
On Forums: 14 years 5 months
Thanks: 32813 time(s)
Ukraine


Хорошая работа. Ни шедевр и не истерика, но за первый месяц этого года наверное самый интересный релиз.
Go to the top of the page
  Insert nick Quick quote
+Quote Post
post Jan 23 2022, 13:14:50
Post #8

Два Литра
**
Group: Завсегдатай
Posts: 114
Releases: 0
On Forums: 11 years 7 months
Thanks: 25 time(s)
Unknown


Go to the top of the page
  Insert nick Quick quote
+Quote Post

Reply to this topicStart new topic
1 User(s) are reading this topic (1 Guests and 0 Anonymous Users)
0 Members:

 



- Lo-Fi Version Support form
Copyrights and abuse reports form
Time is now: 29th January 2022 - 08:45:48