Welcome Guest ( Log In | Register )

> Inhumane Existence - Dehumanized (2022), Death Metal
post Jan 13 2022, 21:53:29
Post #1

Маньяк
**********
Group: Металариец
Posts: 1,094
Releases: 934
On Forums: 1 year 3 weeks
Thanks: 24538 time(s)
United States


(IMG:https://metalarea.org/images/audiocovers/2022_Jan/acov_tid360454_thumb.jpg)

*Artist: Inhumane Existence
*Album: Dehumanized
*Year: 2022
*Genre: Death Metal
*Country: Switzerland (IMG:https://metalarea.org/forum/style_images/flags/Switzerland.png)
*Format: mp3@CBR320kbps
*Size: 80MB

Tracklist:
01. Dehumanized
02. When Aeons Collapse
03. Portraits Of A Decaying Body
04. Devoured By Ammit
05. Carnage Overdose
06. Compulsive Self Mutilation
07. Pneumothorax
08. Hollow
09. Flesh For The Eternal Demiurge
******************************
Total playing time: 30:26



Extended info


Technical info
(IMG:https://metalarea.org/images/spectrogram/2022_Jan/17aa22bae3bcedacc7b271c0c1315f8a.png)
Input File: 02. When Aeons Collapse.mp3
Channels : 2
Sample Rate : 44100
Precision : 16-bit
Duration : 00:03:34.09 = 9441281 samples = 16056.6 CDDA sectors
File Size : 8.69M
Bit Rate : 325k
Sample Encoding: MPEG audio (layer I, II or III)
Comments :
Title=When Aeons Collapse
Artist=Inhumane Existence
Album=Dehumanized
Tracknumber=02/09
Year=2022
Genre=Death Metal



Register


Go to the top of the page
  Insert nick Quick quote
+Quote Post
 
Start new topic
Replies (1 - 2)
post Jan 15 2022, 08:33:34
Post #2

Мегаманьяк
***********
Group: Металариец
Posts: 1,619
Releases: 1
From: APATIN, SERBIA, АПАТИН, СЕРБИЯ
On Forums: 14 years 7 months
Thanks: 4602 time(s)



Flac

Register


Thanks:
Go to the top of the page
  Insert nick Quick quote
+Quote Post
post Jan 19 2022, 11:57:54
Post #3

MDM-Thrash Metal
**************
Group: Металариец
Posts: 11,084
Releases: 1472
From: Одесса
On Forums: 14 years 9 months
Thanks: 35211 time(s)
Ukraine




Brutal Death Metal
Go to the top of the page
  Insert nick Quick quote
+Quote Post

Reply to this topicStart new topic
1 User(s) are reading this topic (1 Guests and 0 Anonymous Users)
0 Members:

 



- Lo-Fi Version Support form
Copyrights and abuse reports form
Time is now: 25th May 2022 - 04:28:56