Welcome Guest ( Log In | Register )

> Releases Upload / Добавление релизов

Добавить релиз тут / Click here to add release
Рекомендованные обменники / Recommended file shares

> Inhumane Existence - Dehumanized (2022), Death Metal
post Jan 13 2022, 21:53:29
Post #1

Восемь Литров
********
Group: Металариец
Posts: 834
Releases: 699
On Forums: 8 months 3 weeks
Thanks: 17760 time(s)
United States


(IMG:https://metalarea.org/images/audiocovers/2022_Jan/acov_tid360454_thumb.jpg)

*Artist: Inhumane Existence
*Album: Dehumanized
*Year: 2022
*Genre: Death Metal
*Country: Switzerland (IMG:https://metalarea.org/forum/style_images/flags/Switzerland.png)
*Format: mp3@CBR320kbps
*Size: 80MB

Tracklist:
01. Dehumanized
02. When Aeons Collapse
03. Portraits Of A Decaying Body
04. Devoured By Ammit
05. Carnage Overdose
06. Compulsive Self Mutilation
07. Pneumothorax
08. Hollow
09. Flesh For The Eternal Demiurge
******************************
Total playing time: 30:26



Extended info


Technical info
(IMG:https://metalarea.org/images/spectrogram/2022_Jan/17aa22bae3bcedacc7b271c0c1315f8a.png)
Input File: 02. When Aeons Collapse.mp3
Channels : 2
Sample Rate : 44100
Precision : 16-bit
Duration : 00:03:34.09 = 9441281 samples = 16056.6 CDDA sectors
File Size : 8.69M
Bit Rate : 325k
Sample Encoding: MPEG audio (layer I, II or III)
Comments :
Title=When Aeons Collapse
Artist=Inhumane Existence
Album=Dehumanized
Tracknumber=02/09
Year=2022
Genre=Death Metal



Register


Go to the top of the page
  Insert nick Quick quote
+Quote Post
 
Start new topic
Replies (1 - 2)
post Jan 15 2022, 08:33:34
Post #2

Маньяк
**********
Group: Металариец
Posts: 1,363
Releases: 1
From: APATIN, SERBIA, АПАТИН, СЕРБИЯ
On Forums: 14 years 2 months
Thanks: 3570 time(s)



Flac

Register
Go to the top of the page
  Insert nick Quick quote
+Quote Post
post Jan 19 2022, 11:57:54
Post #3

MDM-Thrash Metal
**************
Group: Металариец
Posts: 10,778
Releases: 1359
From: Одесса
On Forums: 14 years 5 months
Thanks: 32781 time(s)
Ukraine




Brutal Death Metal
Go to the top of the page
  Insert nick Quick quote
+Quote Post

Reply to this topicStart new topic
2 User(s) are reading this topic (2 Guests and 0 Anonymous Users)
0 Members:

 



- Lo-Fi Version Support form
Copyrights and abuse reports form
Time is now: 22nd January 2022 - 18:57:34