Welcome Guest ( Log In | Register )

 
Reply to this topicStart new topic
> Rambuk - Chains (2022), Thrash/Death Metal
post Jan 13 2022, 22:00:27
Post #1

Маньяк
**********
Group: Металариец
Posts: 1,094
Releases: 934
On Forums: 1 year 4 weeks
Thanks: 24539 time(s)
United States


(IMG:https://metalarea.org/images/audiocovers/2022_Jan/acov_tid360456_thumb.jpg)

*Artist: Rambuk
*Album: Chains
*Year: 2022
*Genre: Thrash/Death Metal
*Country: Denmark (IMG:https://metalarea.org/forum/style_images/flags/Denmark.png)
*Format: mp3@CBR320kbps
*Size: 94MB

Tracklist:
01. Confess
02. By A Thread
03. Icarus Flight
04. Sic Semper Tyrannis
05. 23 & 1
06. Death Of The Chosen
07. Rats In The Walls
08. Hate Me
09. Repent
******************************
Total playing time: 37:01



Technical info
(IMG:https://metalarea.org/images/spectrogram/2022_Jan/39587c4ceece8d7ad62ca504b452ee3f.png)
Input File: 02. By A Thread.mp3
Channels : 2
Sample Rate : 44100
Precision : 16-bit
Duration : 00:04:15.86 = 11283426 samples = 19189.5 CDDA sectors
File Size : 10.3M
Bit Rate : 323k
Sample Encoding: MPEG audio (layer I, II or III)
Comments :
Title=By A Thread
Artist=Rambuk
Album=Chains
Tracknumber=02/09
Year=2022
Genre=Metal



Register


Go to the top of the page
  Insert nick Quick quote
+Quote Post
post Jan 14 2022, 18:26:18
Post #2

Ёлд ХеллоВяйне
Group Icon
Group: V.I.P
Posts: 33,211
Releases: 144
From: Питер
On Forums: 15 years 6 months
Thanks: 20890 time(s)
Russian Federation




Thanks:
Go to the top of the page
  Insert nick Quick quote
+Quote Post
post Jan 15 2022, 17:00:01
Post #3

Old School Metal
**************
Group: Металариец
Posts: 4,385
Releases: 0
From: г. Минск
On Forums: 13 years 2 months
Thanks: 11265 time(s)
Belarus


Lossless: FLAC (tracks)
Register


Thanks:
Go to the top of the page
  Insert nick Quick quote
+Quote Post

Reply to this topicStart new topic
1 User(s) are reading this topic (1 Guests and 0 Anonymous Users)
0 Members:

 



- Lo-Fi Version Support form
Copyrights and abuse reports form
Time is now: 25th May 2022 - 20:35:45