Welcome Guest ( Log In | Register )

> Animårum - The Gaian Mind (2022), Progressive Metal
post Jan 13 2022, 22:03:19
Post #1

Маньяк
**********
Group: Металариец
Posts: 1,094
Releases: 934
On Forums: 1 year 3 weeks
Thanks: 24538 time(s)
United States


(IMG:https://metalarea.org/images/audiocovers/2022_Jan/acov_tid360457_thumb.jpg)

*Artist: Animårum
*Album: The Gaian Mind
*Year: 2022
*Genre: Progressive Metal
*Country: United States (IMG:https://metalarea.org/forum/style_images/flags/United%20States.png)
*Format: mp3@CBR320kbps
*Size: 80MB

Tracklist:
01. Icaro
02. Unknown Perception
03. The Missing Link
04. Ambrosia
05. Cura
******************************
Total playing time: 30:31



Technical info
(IMG:https://metalarea.org/images/spectrogram/2022_Jan/56d8874b1b047a632503741ab26f689e.png)
Input File: 02. Unknown Perception.mp3
Channels : 2
Sample Rate : 44100
Precision : 16-bit
Duration : 00:08:38.07 = 22846711 samples = 38855 CDDA sectors
File Size : 20.8M
Bit Rate : 322k
Sample Encoding: MPEG audio (layer I, II or III)
Comments :
Title=Unknown Perception
Artist=Animårum
Album=The Gaian Mind
Tracknumber=02/05
Year=2022
Genre=Metal



Register


Go to the top of the page
  Insert nick Quick quote
+Quote Post
 
Start new topic
Replies (1 - 2)
post Jan 14 2022, 20:40:43
Post #2

hearer & reader
**************
Group: Металариец
Posts: 10,281
Releases: 211
From: Moscow
On Forums: 14 years 8 months
Thanks: 12389 time(s)
Russian Federation


+Death
Register


Go to the top of the page
  Insert nick Quick quote
+Quote Post
post Jan 14 2022, 21:39:18
Post #3

21st Century Schizoid Man
**************
Group: Металариец
Posts: 7,261
Releases: 90
From: Pirate Bay
On Forums: 14 years 2 weeks
Thanks: 6153 time(s)
Liberia




Thanks:
Go to the top of the page
  Insert nick Quick quote
+Quote Post

Reply to this topicStart new topic
1 User(s) are reading this topic (1 Guests and 0 Anonymous Users)
0 Members:

 



- Lo-Fi Version Support form
Copyrights and abuse reports form
Time is now: 25th May 2022 - 05:19:39