Welcome Guest ( Log In | Register )

> Releases Upload / Добавление релизов

Добавить релиз тут / Click here to add release
Рекомендованные обменники / Recommended file shares

> Animårum - The Gaian Mind (2022), Progressive Metal
post Jan 13 2022, 22:03:19
Post #1

Восемь Литров
********
Group: Металариец
Posts: 834
Releases: 699
On Forums: 8 months 3 weeks
Thanks: 17766 time(s)
United States


(IMG:https://metalarea.org/images/audiocovers/2022_Jan/acov_tid360457_thumb.jpg)

*Artist: Animårum
*Album: The Gaian Mind
*Year: 2022
*Genre: Progressive Metal
*Country: United States (IMG:https://metalarea.org/forum/style_images/flags/United%20States.png)
*Format: mp3@CBR320kbps
*Size: 80MB

Tracklist:
01. Icaro
02. Unknown Perception
03. The Missing Link
04. Ambrosia
05. Cura
******************************
Total playing time: 30:31



Technical info
(IMG:https://metalarea.org/images/spectrogram/2022_Jan/56d8874b1b047a632503741ab26f689e.png)
Input File: 02. Unknown Perception.mp3
Channels : 2
Sample Rate : 44100
Precision : 16-bit
Duration : 00:08:38.07 = 22846711 samples = 38855 CDDA sectors
File Size : 20.8M
Bit Rate : 322k
Sample Encoding: MPEG audio (layer I, II or III)
Comments :
Title=Unknown Perception
Artist=Animårum
Album=The Gaian Mind
Tracknumber=02/05
Year=2022
Genre=Metal



Register


Go to the top of the page
  Insert nick Quick quote
+Quote Post
 
Start new topic
Replies (1 - 2)
post Jan 14 2022, 20:40:43
Post #2

hearer & reader
**************
Group: Металариец
Posts: 10,068
Releases: 183
From: Moscow
On Forums: 14 years 4 months
Thanks: 11657 time(s)
Russian Federation


+Death
Register


Thanks:
Go to the top of the page
  Insert nick Quick quote
+Quote Post
post Jan 14 2022, 21:39:18
Post #3

21st Century Schizoid Man
**************
Group: Металариец
Posts: 7,127
Releases: 89
From: Pdmsk
On Forums: 13 years 8 months
Thanks: 6038 time(s)
Russian Federation




Thanks:
Go to the top of the page
  Insert nick Quick quote
+Quote Post

Reply to this topicStart new topic
2 User(s) are reading this topic (2 Guests and 0 Anonymous Users)
0 Members:

 



- Lo-Fi Version Support form
Copyrights and abuse reports form
Time is now: 22nd January 2022 - 19:33:08