Welcome Guest ( Log In | Register )

> И неформату есть предел.

Рэп/хип-хоп/шансон/поп удаляются. Для них есть свои порталы.

> Zombie Hyperdrive - Imperium (2020), Synthwave/Dreamwave
post Jan 13 2022, 22:43:21
Post #1

на аватаре не я
**************
Group: Металариец
Posts: 5,384
Releases: 9
From: Русский город Донецк
On Forums: 12 years 11 months
Thanks: 2875 time(s)
Russian Federation


(IMG:https://metalarea.org/images/audiocovers/2022_Jan/acov_tid360458_thumb.jpg)

*Artist: Zombie Hyperdrive
*Album: Imperium
*Year: 2020
*Genre: Synthwave/Dreamwave
*Country: Germany (IMG:https://metalarea.org/forum/style_images/flags/Germany.png)
*Format: mp3@CBR320kbps
*Size: 104MB

Tracklist:
1. The Future 01:50
2. Imperium 04:07
3. Renaissance Vector 03:58
4. Moon Girl 03:46
5. Mare Infinitus 04:36
6. Refuse to Lose 02:39
7. Old Earth 02:30
8. Rebel Renegade 03:52
9. Sundowner 03:40
10. Awakening 01:52
11. Nemesis 03:05
12. Destiny 05:32
13. Between the Stars 03:48
******************************
Total playing time: 45:15



Extended info
Очень красивый и хитовый альбом. Вероятно, лучший в дискографии.


Technical info
(IMG:https://metalarea.org/images/spectrogram/2022_Jan/883ae61a4ecb3aa706cea87ebfa95d82.png)
Input File: 02. Imperium.mp3
Channels : 2
Sample Rate : 44100
Precision : 16-bit
Duration : 00:04:07.08 = 10896360 samples = 18531.2 CDDA sectors
File Size : 9.95M
Bit Rate : 322k
Sample Encoding: MPEG audio (layer I, II or III)
Comments :
Title=Imperium
Artist=Zombie Hyperdrive
Album=Imperium
Tracknumber=2
Year=2020
Genre=Electro / Dance
Discnumber=1



Register


Go to the top of the page
  Insert nick Quick quote
+Quote Post
 
Start new topic
Replies (1 - 1)
post Jan 14 2022, 19:54:58
Post #2

Ёлд ХеллоВяйне
Group Icon
Group: V.I.P
Posts: 33,249
Releases: 144
From: Питер
On Forums: 15 years 8 months
Thanks: 20927 time(s)
Russian Federation


QUOTE(Shadowman @ 14th January 2022 - 00:43:21) *
Очень красивый и хитовый альбом. Вероятно, лучший в дискографии.


Прильнул было, но чот по первым впечатлениям сильно хуже того же Gunship.
Go to the top of the page
  Insert nick Quick quote
+Quote Post

Reply to this topicStart new topic
1 User(s) are reading this topic (1 Guests and 0 Anonymous Users)
0 Members:

 



- Lo-Fi Version Support form
Copyrights and abuse reports form
Time is now: 1st July 2022 - 17:23:06