Welcome Guest ( Log In | Register )

> Releases Upload / Добавление релизов

Добавить релиз тут / Click here to add release
Рекомендованные обменники / Recommended file shares

> Bleeding Zero - Pain & Fiction (2022), Symphonic/Gothic Metal
post Jan 14 2022, 00:48:18
Post #1

Восемь Литров
********
Group: Металариец
Posts: 834
Releases: 693
On Forums: 8 months 3 weeks
Thanks: 17755 time(s)
United States


(IMG:https://metalarea.org/images/audiocovers/2022_Jan/acov_tid360459_thumb.jpg)

*Artist: Bleeding Zero
*Album: Pain & Fiction
*Year: 2022
*Genre: Symphonic/Gothic Metal
*Country: Italy (IMG:https://metalarea.org/forum/style_images/flags/Italy.png)
*Format: mp3@CBR320kbps
*Size: 142MB

Tracklist:
01. Terra Nova
02. Life And Death Of Sybil Vane
03. Parnassus
04. Sappho's Leap
05. Romanticynicism
06. In Somnium Ars Clamavit
07. Ecce Ancilla Musae
08. Bliss Of The Sea
09. Scenophiliac
10. The Seal And The Siren
11. Saturnine
12. Quest For Myself
******************************
Total playing time: 57:28




Technical info
(IMG:https://metalarea.org/images/spectrogram/2022_Jan/e39a05d550bb0257b66d44ed317a8892.png)
Input File: 02. Life And Death Of Sybil Vane.mp3
Channels : 2
Sample Rate : 44100
Precision : 16-bit
Duration : 00:04:39.08 = 12307604 samples = 20931.3 CDDA sectors
File Size : 11.2M
Bit Rate : 322k
Sample Encoding: MPEG audio (layer I, II or III)
Comments :
Title=Life And Death Of Sybil Vane
Artist=Bleeding Zero
Album=Pain & Fiction
Tracknumber=02/12
Year=2022
Genre=Metal



Register


Go to the top of the page
  Insert nick Quick quote
+Quote Post
 
Start new topic
Replies (1 - 2)
post Jan 14 2022, 18:02:16
Post #2

Ёлд ХеллоВяйне
Group Icon
Group: V.I.P
Posts: 32,542
Releases: 144
From: Питер
On Forums: 15 years 2 months
Thanks: 20432 time(s)
Russian Federation


Go to the top of the page
  Insert nick Quick quote
+Quote Post
post Jan 14 2022, 18:59:19
Post #3

Тридцать лет на борту "Тяжёлого" крейсера
**************
Group: Металариец
Posts: 2,783
Releases: 0
From: Питер
On Forums: 14 years 7 months
Thanks: 874 time(s)
Russian Federation


Облогу в Пэйнте делали..и музыку в нём же, похоже. На скорую руку
Go to the top of the page
  Insert nick Quick quote
+Quote Post

Reply to this topicStart new topic
2 User(s) are reading this topic (2 Guests and 0 Anonymous Users)
0 Members:

 



- Lo-Fi Version Support form
Copyrights and abuse reports form
Time is now: 22nd January 2022 - 17:58:32