Welcome Guest ( Log In | Register )

> Wintaar - Deathentrance (2022), Black Metal (D)
post Jan 14 2022, 05:21:25
Post #1

 
*********
Group: Металариец
Posts: 900
Releases: 119
From: Wintercult
On Forums: 14 years 1 month
Thanks: 3030 time(s)
Russian Federation


(IMG:https://metalarea.org/images/audiocovers/2022_Jan/acov_tid360464_thumb.jpg)

*Artist: Wintaar
*Album: Deathentrance
*Year: 2022
*Genre: Black Metal
*Country: Russian Federation (IMG:https://metalarea.org/forum/style_images/flags/Russian%20Federation.png)
*Format: mp3@CBR256kbps
*Size: 86MB

Tracklist:
1. You Require Me To Pray
2. Nails Of Rebirth
3. Total Invocation
4. Hymn To Equality
5. Break And Shatter
6. Humanity
7. Apocalypsis
******************************
Total playing time: 45:56



Technical info
(IMG:https://metalarea.org/images/spectrogram/2022_Jan/287a5a59568f2e030fddb01abf0e9d22.png)
Input File: 01. You Require Me To Pray.mp3
Channels : 2
Sample Rate : 48000
Precision : 16-bit
Duration : 00:05:49.46 = 16774272 samples ~ 26209.8 CDDA sectors
File Size : 11.4M
Bit Rate : 260k
Sample Encoding: MPEG audio (layer I, II or III)
Comments :
Title=You Require Me To Pray
Artist=Wintaar
Album=Deathentrance
Tracknumber=1
Year=2022
Genre=138



Register


Go to the top of the page
  Insert nick Quick quote
+Quote Post
 
Start new topic
Replies (1 - 8)
post Jan 14 2022, 20:35:20
Post #2

Правь статус, ####!111
**************
Group: Металариец
Posts: 4,154
Releases: 1
From: Рейх
On Forums: 15 years 9 months
Thanks: 1005 time(s)
Ukraine


новый год и новый альбом, а потом еще 11 штук в каждом месяце


Thanks:
Go to the top of the page
  Insert nick Quick quote
+Quote Post
post Jan 14 2022, 20:37:26
Post #3

Ёлд ХеллоВяйне
Group Icon
Group: V.I.P
Posts: 33,205
Releases: 144
From: Питер
On Forums: 15 years 6 months
Thanks: 20880 time(s)
Russian Federation


QUOTE(smes @ 14th January 2022 - 22:35:20) *
11 штук в каждом месяце


Это 132 за год. А что? Назло рекордам!©.


Thanks:
(1) smes,
Go to the top of the page
  Insert nick Quick quote
+Quote Post
post Jan 15 2022, 05:31:21
Post #4

0%Tolerance
***********
Group: Металариец
Posts: 1,829
Releases: 0
On Forums: 9 years 8 months
Thanks: 391 time(s)
Unknown


ЦИТАТА(Old Vyaine @ Jan 14 2022, 21:37:26) *
Это 132 за год.

Это если конвейер у него не китаёзовского производства. (IMG:style_emoticons/default/1488.gif)


Thanks:
(1) smes,
Go to the top of the page
  Insert nick Quick quote
+Quote Post
post Jan 15 2022, 15:25:43
Post #5

Четыре Литра
****
Group: Металариец
Posts: 314
Releases: 0
From: Калуга
On Forums: 4 years 3 months
Thanks: 103 time(s)
Russian Federation


Он вообще отдыхает?


Thanks:
(1) smes,
Go to the top of the page
  Insert nick Quick quote
+Quote Post
post Jan 15 2022, 15:47:35
Post #6

Пять Литров
*****
Group: Металариец
Posts: 436
Releases: 0
On Forums: 9 years 5 months
Thanks: 540 time(s)
Ukraine


QUOTE(rominow @ Jan 15 2022, 16:25:43) *
Он вообще отдыхает?


Подбухивает периодически. А так-то человек идет по дорожке, проторенной Антонио Вивальди, Иоганном Себастьяном Бахом и другими мастерами музыки прошлого - то есть создает новый стафф не по мановению волшебной палочки вдохновения, а в ежедневном рабочем режиме.


Thanks:
(1) smes,
Go to the top of the page
  Insert nick Quick quote
+Quote Post
post Jan 15 2022, 16:35:32
Post #7

Четыре Литра
****
Group: Металариец
Posts: 314
Releases: 0
From: Калуга
On Forums: 4 years 3 months
Thanks: 103 time(s)
Russian Federation


ЦИТАТА(technoboy69 @ Jan 15 2022, 15:47:35) *
Подбухивает периодически. А так-то человек идет по дорожке, проторенной Антонио Вивальди, Иоганном Себастьяном Бахом и другими мастерами музыки прошлого - то есть создает новый стафф не по мановению волшебной палочки вдохновения, а в ежедневном рабочем режиме.

ну что же, пожелаем ему успехов.
Go to the top of the page
  Insert nick Quick quote
+Quote Post
post Jan 30 2022, 16:29:55
Post #8

Full-of-Hate
**************
Group: Металариец
Posts: 4,876
Releases: 0
From: Moscow
On Forums: 12 years 10 months
Thanks: 5372 time(s)
Russian Federation


Daale, альбом займет место в топе лучшего за 2022? (IMG:style_emoticons/default/15.gif)
К слову, здесь нарезают весьма неплохо, раздают скоростей.
Go to the top of the page
  Insert nick Quick quote
+Quote Post
post Apr 12 2022, 20:16:05
Post #9

Правь статус, ####!111
**************
Group: Металариец
Posts: 50,651
Releases: 931
On Forums: 12 years 11 months
Thanks: 47366 time(s)
Russian Federation


320 нетути?
Go to the top of the page
  Insert nick Quick quote
+Quote Post

Reply to this topicStart new topic
1 User(s) are reading this topic (1 Guests and 0 Anonymous Users)
0 Members:

 



- Lo-Fi Version Support form
Copyrights and abuse reports form
Time is now: 22nd May 2022 - 16:00:40