Welcome Guest ( Log In | Register )

> Releases Upload / Добавление релизов

Добавить релиз тут / Click here to add release
Рекомендованные обменники / Recommended file shares

> Wintaar - Deathentrance (2022), Black Metal (D)
post Jan 14 2022, 05:21:25
Post #1

 
********
Group: Металариец
Posts: 893
Releases: 118
On Forums: 13 years 9 months
Thanks: 2990 time(s)
Russian Federation


(IMG:https://metalarea.org/images/audiocovers/2022_Jan/acov_tid360464_thumb.jpg)

*Artist: Wintaar
*Album: Deathentrance
*Year: 2022
*Genre: Black Metal
*Country: Russian Federation (IMG:https://metalarea.org/forum/style_images/flags/Russian%20Federation.png)
*Format: mp3@CBR256kbps
*Size: 86MB

Tracklist:
1. You Require Me To Pray
2. Nails Of Rebirth
3. Total Invocation
4. Hymn To Equality
5. Break And Shatter
6. Humanity
7. Apocalypsis
******************************
Total playing time: 45:56



Technical info
(IMG:https://metalarea.org/images/spectrogram/2022_Jan/287a5a59568f2e030fddb01abf0e9d22.png)
Input File: 01. You Require Me To Pray.mp3
Channels : 2
Sample Rate : 48000
Precision : 16-bit
Duration : 00:05:49.46 = 16774272 samples ~ 26209.8 CDDA sectors
File Size : 11.4M
Bit Rate : 260k
Sample Encoding: MPEG audio (layer I, II or III)
Comments :
Title=You Require Me To Pray
Artist=Wintaar
Album=Deathentrance
Tracknumber=1
Year=2022
Genre=138



Register


Go to the top of the page
  Insert nick Quick quote
+Quote Post
 
Start new topic
Replies (1 - 6)
post Jan 14 2022, 20:35:20
Post #2

Правь статус, ####!111
**************
Group: Металариец
Posts: 4,113
Releases: 1
From: Рейх
On Forums: 15 years 5 months
Thanks: 988 time(s)
Ukraine


новый год и новый альбом, а потом еще 11 штук в каждом месяце


Thanks:
Go to the top of the page
  Insert nick Quick quote
+Quote Post
post Jan 14 2022, 20:37:26
Post #3

Ёлд ХеллоВяйне
Group Icon
Group: V.I.P
Posts: 32,543
Releases: 144
From: Питер
On Forums: 15 years 2 months
Thanks: 20432 time(s)
Russian Federation


QUOTE(smes @ 14th January 2022 - 22:35:20) *
11 штук в каждом месяце


Это 132 за год. А что? Назло рекордам!©.
Go to the top of the page
  Insert nick Quick quote
+Quote Post
post Jan 15 2022, 05:31:21
Post #4

0%Tolerance
***********
Group: Металариец
Posts: 1,637
Releases: 0
On Forums: 9 years 4 months
Thanks: 320 time(s)
Unknown


ЦИТАТА(Old Vyaine @ Jan 14 2022, 21:37:26) *
Это 132 за год.

Это если конвейер у него не китаёзовского производства. (IMG:style_emoticons/default/1488.gif)
Go to the top of the page
  Insert nick Quick quote
+Quote Post
post Jan 15 2022, 15:25:43
Post #5

Три Литра
***
Group: Завсегдатай
Posts: 271
Releases: 0
From: Калуга
On Forums: 3 years 11 months
Thanks: 79 time(s)
Russian Federation


Он вообще отдыхает?
Go to the top of the page
  Insert nick Quick quote
+Quote Post
post Jan 15 2022, 15:47:35
Post #6

Пять Литров
*****
Group: Металариец
Posts: 427
Releases: 0
On Forums: 9 years 2 months
Thanks: 533 time(s)
Ukraine


QUOTE(rominow @ Jan 15 2022, 16:25:43) *
Он вообще отдыхает?


Подбухивает периодически. А так-то человек идет по дорожке, проторенной Антонио Вивальди, Иоганном Себастьяном Бахом и другими мастерами музыки прошлого - то есть создает новый стафф не по мановению волшебной палочки вдохновения, а в ежедневном рабочем режиме.
Go to the top of the page
  Insert nick Quick quote
+Quote Post
post Jan 15 2022, 16:35:32
Post #7

Три Литра
***
Group: Завсегдатай
Posts: 271
Releases: 0
From: Калуга
On Forums: 3 years 11 months
Thanks: 79 time(s)
Russian Federation


ЦИТАТА(technoboy69 @ Jan 15 2022, 15:47:35) *
Подбухивает периодически. А так-то человек идет по дорожке, проторенной Антонио Вивальди, Иоганном Себастьяном Бахом и другими мастерами музыки прошлого - то есть создает новый стафф не по мановению волшебной палочки вдохновения, а в ежедневном рабочем режиме.

ну что же, пожелаем ему успехов.
Go to the top of the page
  Insert nick Quick quote
+Quote Post

Reply to this topicStart new topic
3 User(s) are reading this topic (3 Guests and 0 Anonymous Users)
0 Members:

 



- Lo-Fi Version Support form
Copyrights and abuse reports form
Time is now: 22nd January 2022 - 18:03:54