Welcome Guest ( Log In | Register )

> Nich†oshiz - Drained Mentally (2021), Black Metal
post Jan 14 2022, 06:05:59
Post #1

 
**********
Group: Металариец
Posts: 1,179
Releases: 5
On Forums: 5 years 2 months
Thanks: 826 time(s)
Bhutan


(IMG:https://metalarea.org/images/audiocovers/2022_Jan/acov_tid3604665_thumb.jpg)

*Artist: Nich†oshiz
*Album: Drained Mentally
*Year: 2021
*Genre: Black Metal
*Country: Russian Federation (IMG:https://metalarea.org/forum/style_images/flags/Russian%20Federation.png)
*Format: mp3@CBR320kbps
*Size: 193MB

Tracklist:
1. Intro
2. Drained Mentally
3. Transilvanian Hunger (Darkthrone Cover)
4. Transilvanian Hunger II (Darkthrone Cover)
5. Red Sand
6. Succubus Creator
7. Zodiax
8. Supression
9. Ksuredas
10. Apathy
11. Akatiz
12. Outro
******************************
Total playing time: 1:23:50



Technical info
(IMG:https://metalarea.org/images/spectrogram/2022_Jan/525a301d82b6ced63b96a0919ba45325.png)
Input File: 02. Drained Mentally.mp3
Channels : 2
Sample Rate : 44100
Precision : 16-bit
Duration : 00:10:00.30 = 26473406 samples = 45022.8 CDDA sectors
File Size : 24.1M
Bit Rate : 321k
Sample Encoding: MPEG audio (layer I, II or III)
Comments :
Title=Drained Mentally
Artist=Nich†oshiz
Album=Drained Mentally
Tracknumber=2
Year=2021



Register


Go to the top of the page
  Insert nick Quick quote
+Quote Post
 
Start new topic
Replies (1 - 1)
post Jan 23 2022, 16:33:53
Post #2

Семь Литров
*******
Group: Металариец
Posts: 758
Releases: 15
From: Brasil - Sao Paulo
On Forums: 2 years 3 months
Thanks: 636 time(s)
Brazil


Nice picture (IMG:style_emoticons/default/9.gif) https://www.metal-archives.com/images/3/5/4..._photo.jpg?1900
Nice album!
Go to the top of the page
  Insert nick Quick quote
+Quote Post

Reply to this topicStart new topic
1 User(s) are reading this topic (1 Guests and 0 Anonymous Users)
0 Members:

 



- Lo-Fi Version Support form
Copyrights and abuse reports form
Time is now: 16th August 2022 - 11:04:09