Welcome Guest ( Log In | Register )

> Nullification - Kingdoms To Hovel (2022), Old-School Death Metal
post Jan 14 2022, 06:06:48
Post #1

Правь статус, ####!111
**************
Group: Металариец
Posts: 2,681
Releases: 1239
On Forums: 11 years 6 months
Thanks: 24484 time(s)
Russian Federation


(IMG:https://metalarea.org/images/audiocovers/2022_Jan/acov_tid360466_thumb.jpg)

*Artist: Nullification
*Album: Kingdoms To Hovel
*Year: 2022
*Genre: Old-School Death Metal
*Country: Philippines (IMG:https://metalarea.org/forum/style_images/flags/Philippines.png)
*Format: mp3@CBR320kbps
*Size: 84MB

Tracklist:
1. Intro To Annihilation 02:48
2. The Sledgehammer 05:02
3. Calamity From The Skies 04:26
4. Kingdoms Reduced To Hovel 04:29
5. Deliverance From Chaos 03:31
6. Negated Fields 04:11
7. Inside The Surreal 04:09
8. Everything... and Everyone (Nullified) 03:39
9. I, The Nullifier 04:09
******************************
Total playing time: 36:24



Technical info
(IMG:https://metalarea.org/images/spectrogram/2022_Jan/9f1a8c77d1f4da4209190d4952f40639.png)
Input File: 09 I, The Nullifier.mp3
Channels : 2
Sample Rate : 44100
Precision : 16-bit
Duration : 00:04:09.17 = 10988485 samples = 18687.9 CDDA sectors
File Size : 10.2M
Bit Rate : 328k
Sample Encoding: MPEG audio (layer I, II or III)
Comments :
Title=I, The Nullifier
Artist=Nullification
Album=Kingdoms To Hovel
Tracknumber=9
Year=2022
Genre=Old-School Death Metal



Register

Register


Go to the top of the page
  Insert nick Quick quote
+Quote Post
 
Start new topic
Replies (1 - 1)
post Jan 15 2022, 08:32:09
Post #2

Мегаманьяк
***********
Group: Металариец
Posts: 1,634
Releases: 1
From: APATIN, SERBIA, АПАТИН, СЕРБИЯ
On Forums: 14 years 7 months
Thanks: 4638 time(s)



Flac

Register


Thanks:
Go to the top of the page
  Insert nick Quick quote
+Quote Post

Reply to this topicStart new topic
1 User(s) are reading this topic (1 Guests and 0 Anonymous Users)
0 Members:

 



- Lo-Fi Version Support form
Copyrights and abuse reports form
Time is now: 29th May 2022 - 07:28:27