Welcome Guest ( Log In | Register )

> Fecal Body Incorporated - Tales From The Spermswamp (2022), Goregrind (D7)
post Jan 14 2022, 06:26:17
Post #1

Правь статус, ####!111
**************
Group: Металариец
Posts: 2,951
Releases: 1492
On Forums: 11 years 7 months
Thanks: 29130 time(s)
Russian Federation


(IMG:https://metalarea.org/images/audiocovers/2022_Jan/acov_tid360467_thumb.jpg)

*Artist: Fecal Body Incorporated
*Album: Tales From The Spermswamp
*Year: 2022
*Genre: Goregrind
*Country: Bulgaria (IMG:https://metalarea.org/forum/style_images/flags/Bulgaria.png)
*Format: mp3@CBR320kbps
*Size: 134MB

Tracklist:
01.Legend For The Spermswamp 04:02
02.Woman Like A Fetish 03:17
03.Adventures Of Don Coyote In The Valley Of Anal 04:19
04.Fairy Divine And Deadly Vaginosis 04:10
05.The Fisherman And Golden Transexual Mermaid 06:38
06.Superman And The 40 Whores 03:02
07.Filthy Passions 03:38
08.Frog Time In Pussyland 03:01
09.Uncle Dick In The Kingdom Of Tight Anals 03:22
10.Prayer For The Spermswamp 02:47
11.Rectal Kaviar Sludge 03:22
12.Female S(H)It Terror 03:02
13.Bizarre Body Modification 02:26
14.Something Rotten For Dinner 03:32
15.Maggots And Rancid Meat 02:17
16.Removal Of Rotting Fetus From The Womb 01:33
17.Cold Turkey (Ahumado Granujo Cover) 01:33
18.King Anus III (Cock And Ball Torture Cover) 00:57
19.Pathogenesis 02:00
******************************
Total playing time: 58:58

(IMG:https://metalarea.org/images/youtube.png)

Extended info
Recorded, mixed and mastered January-August 2021 in Slaughterhouse Studio, Pleven, Bulgaria.
Tracks 11-19 recorded live at Club VLC, 26.05.2012, Sofia, Bulgaria.


Technical info
(IMG:https://metalarea.org/images/spectrogram/2022_Jan/6388bbae4406ed1ecb1b610aeb50818e.png)
Input File: 06. Superman And The 40 Whores.mp3
Channels : 2
Sample Rate : 44100
Precision : 16-bit
Duration : 00:03:02.87 = 8064567 samples = 13715.2 CDDA sectors
File Size : 7.51M
Bit Rate : 329k
Sample Encoding: MPEG audio (layer I, II or III)
Comments :
Title=Superman And The 40 Whores
Artist=Fecal Body Incorporated
Album=Tales From The Spermswamp
Tracknumber=06
Year=2021
Genre=Goregrind



Register


Go to the top of the page
  Insert nick Quick quote
+Quote Post
 
Start new topic
Replies (1 - 2)
post Jan 15 2022, 08:30:44
Post #2

Мегаманьяк
***********
Group: Металариец
Posts: 1,705
Releases: 1
From: APATIN, SERBIA, АПАТИН, СЕРБИЯ
On Forums: 14 years 8 months
Thanks: 4974 time(s)



Flac

Register


Thanks:
Go to the top of the page
  Insert nick Quick quote
+Quote Post
post Jan 15 2022, 15:23:04
Post #3

Четыре Литра
****
Group: Металариец
Posts: 329
Releases: 0
From: Калуга
On Forums: 4 years 5 months
Thanks: 106 time(s)
Russian Federation




Thanks:
Go to the top of the page
  Insert nick Quick quote
+Quote Post

Reply to this topicStart new topic
1 User(s) are reading this topic (1 Guests and 0 Anonymous Users)
0 Members:

 



- Lo-Fi Version Support form
Copyrights and abuse reports form
Time is now: 1st July 2022 - 18:25:16