Welcome Guest ( Log In | Register )

> Dissociation - Frozen Mournings... (2022), Depressive Black Metal (D)
post Jan 14 2022, 09:56:14
Post #1

I hate you all
**************
Group: Металариец
Posts: 3,012
Releases: 94
From: Ukraine
On Forums: 15 years 3 months
Thanks: 7569 time(s)
Ukraine


(IMG:https://metalarea.org/images/audiocovers/2022_Jan/acov_tid360468_thumb.jpg)

*Artist: Dissociation
*Album: Frozen Mournings...
*Year: 2022
*Genre: Depressive Black Metal
*Country: France (IMG:https://metalarea.org/forum/style_images/flags/France.png)
*Format: mp3@CBR320kbps
*Size: 84MB

Tracklist:
1. Fog Pt. I 06:54
2. Fog Pt. II 05:40
3. A Brighter Place 06:32
4. In the Wake of Winter 07:38
5. A Ghost 09:41
******************************
Total playing time: 36:25



Technical info
(IMG:https://metalarea.org/images/spectrogram/2022_Jan/ecfa32bcc81dabc7faf147aaea29141a.png)
Input File: 02 - Fog, Pt. II.mp3
Channels : 2
Sample Rate : 44100
Precision : 16-bit
Duration : 00:05:40.97 = 15036865 samples = 25572.9 CDDA sectors
File Size : 13.7M
Bit Rate : 321k
Sample Encoding: MPEG audio (layer I, II or III)
Comments :
Title=Fog, Pt. II
Artist=Dissociation
Album=Frozen Mournings...
Tracknumber=2
Year=2022
Genre=Depressive Black Metal



Register


Go to the top of the page
  Insert nick Quick quote
+Quote Post
 
Start new topic
Replies (1 - 2)
post Jan 15 2022, 15:20:05
Post #2

Четыре Литра
****
Group: Металариец
Posts: 337
Releases: 0
From: Калуга
On Forums: 4 years 6 months
Thanks: 113 time(s)
Russian Federation


Go to the top of the page
  Insert nick Quick quote
+Quote Post
post Jan 18 2022, 15:25:19
Post #3

 
**********
Group: Металариец
Posts: 1,179
Releases: 5
On Forums: 5 years 2 months
Thanks: 826 time(s)
Bhutan


Можно послушать. Можно не слушать. Отторжения не вызывает, восторгов тоже.
Go to the top of the page
  Insert nick Quick quote
+Quote Post

Reply to this topicStart new topic
1 User(s) are reading this topic (1 Guests and 0 Anonymous Users)
0 Members:

 



- Lo-Fi Version Support form
Copyrights and abuse reports form
Time is now: 16th August 2022 - 11:47:59