Welcome Guest ( Log In | Register )

> Releases Upload / Добавление релизов

Добавить релиз тут / Click here to add release
Рекомендованные обменники / Recommended file shares

 
Reply to this topicStart new topic
> Primitive Man - Audiotree Live [live] (2022), Doom/Stoner Metal (D)
post Jan 14 2022, 11:00:36
Post #1

Четыре Литра
****
Group: Металариец
Posts: 380
Releases: 138
From: Helvetia
On Forums: 8 years 11 months
Thanks: 3009 time(s)
Switzerland


(IMG:https://metalarea.org/images/audiocovers/2022_Jan/acov_tid360469_thumb.jpg)

*Artist: Primitive Man
*Album: Audiotree Live [live]
*Year: 2022
*Genre: Doom/Stoner Metal
*Country: United States (IMG:https://metalarea.org/forum/style_images/flags/United%20States.png)
*Format: mp3@CBR320kbps
*Size: 63MB

Tracklist:
1. Inevitable 13:04
2. The Lifer 07:27
3. Menacing 06:39
******************************
Total playing time: 27:10

(IMG:https://metalarea.org/images/youtube.png)

Extended info
Primitive Man is a doom metal trio from the mountains of Colorado known for their harsh, relentlessly heavy sound. They combine elements of funeral doom, black metal and noise to form their soul-crushing tunes. Check out the killer performance by Primitive Man live at Audiotree.


Technical info
(IMG:https://metalarea.org/images/spectrogram/2022_Jan/5f4a03dcecb07bb696a291e88d787ba7.png)
Input File: 03 - Menacing (Audiotree Live Version).mp3
Channels : 2
Sample Rate : 44100
Precision : 16-bit
Duration : 00:06:39.00 = 17595900 samples = 29925 CDDA sectors
File Size : 16.1M
Bit Rate : 323k
Sample Encoding: MPEG audio (layer I, II or III)
Comments :
Title=Menacing (Audiotree Live Version)
Artist=Primitive Man
Album=Primitive Man on Audiotree Live
Tracknumber=3
Year=2022-01-11
Genre=9



Register


Go to the top of the page
  Insert nick Quick quote
+Quote Post

Reply to this topicStart new topic
1 User(s) are reading this topic (1 Guests and 0 Anonymous Users)
0 Members:

 



- Lo-Fi Version Support form
Copyrights and abuse reports form
Time is now: 29th January 2022 - 09:03:42