Welcome Guest ( Log In | Register )

 
Reply to this topicStart new topic
> Vorgrum - Party In The Deep (2018), Pagan Metal
post Jan 14 2022, 11:40:17
Post #1

Group: Дух
Posts: 3
Releases: 2
On Forums: 1 year 4 months
Thanks: 7 time(s)
Italy


(IMG:https://metalarea.org/images/audiocovers/2022_Jan/acov_tid360470_thumb.jpg)

*Artist: Vorgrum
*Album: Party In The Deep
*Year: 2018
*Genre: Pagan Metal
*Country: Argentina (IMG:https://metalarea.org/forum/style_images/flags/Argentina.png)
*Format: mp3@CBR320kbps
*Size: 102MB

Tracklist:
1. Guardians
2. Dancers of the eternal Blackness
3. Swollen Troll
4. Beer Island
5. Party in the Deep
6. Legends of a Beast
7. Cursed Crown
8. Pinta la Joda
9. Winged Boots
10. Dragon's Breath
11. Dream Eater
12. Lost in Time
13. The Portal
******************************
Total playing time: 43:42

Technical info
(IMG:https://metalarea.org/images/spectrogram/2022_Jan/cb5bee4ed8a90c29b10fb8b82181718d.png)
Input File: 1.mp3
Channels : 2
Sample Rate : 44100
Precision : 16-bit
Duration : 00:04:09.25 = 10991837 samples = 18693.6 CDDA sectors
File Size : 9.98M
Bit Rate : 320k
Sample Encoding: MPEG audio (layer I, II or III)



Register


Thanks:
Go to the top of the page
  Insert nick Quick quote
+Quote Post

Reply to this topicStart new topic
1 User(s) are reading this topic (1 Guests and 0 Anonymous Users)
0 Members:

 



- Lo-Fi Version Support form
Copyrights and abuse reports form
Time is now: 30th September 2022 - 14:56:24