Welcome Guest ( Log In | Register )

> Clanrock - Flight Of The Phoenix (2007), Folk Metal/Celtic Rock
post Jan 14 2022, 11:49:07
Post #1

Group: Дух
Posts: 3
Releases: 2
On Forums: 1 year 1 month
Thanks: 7 time(s)
Italy


(IMG:https://metalarea.org/images/audiocovers/2022_Jan/acov_tid360471_thumb.jpg)

*Artist: Clanrock
*Album: Flight Of The Phoenix
*Year: 2007
*Genre: Folk Metal/Celtic Rock
*Country: Luxembourg (IMG:https://metalarea.org/forum/style_images/flags/Luxembourg.png)
*Format: mp3@CBR320kbps
*Size: 155MB

Tracklist:
1. Der Rivale
2. Flight of the Phoenix
3. Draco Magnus
4. De Walert
5. Amber Fields of Grain
6. 3 Gefuerdechten
7. Clouds
8. And another Thing
9. Star of the County Down
10. Guns'n Drums
11. Flames
12. Bits n'Pieces
13. Listen, Learn and Act
14. E Kendchen as gebouren gin
******************************
Total playing time: 1:13:00

Technical info
(IMG:https://metalarea.org/images/spectrogram/2022_Jan/205d4a03f1e180039560166211068448.png)
Input File: 01. Der Rivale.mp3
Channels : 2
Sample Rate : 44100
Precision : 16-bit
Duration : 00:03:54.41 = 10337569 samples = 17580.9 CDDA sectors
File Size : 9.56M
Bit Rate : 326k
Sample Encoding: MPEG audio (layer I, II or III)
Comments :
Artist=Clanrock
Album=Flight of the Phoenix



Register


Go to the top of the page
  Insert nick Quick quote
+Quote Post
 
Start new topic
Replies (1 - 1)
post Jan 15 2022, 04:59:52
Post #2

Group: Подсевший
Posts: 40
Releases: 0
From: Russia
On Forums: 13 years 9 months
Thanks: 24 time(s)
Russian Federation


Register
Go to the top of the page
  Insert nick Quick quote
+Quote Post

Reply to this topicStart new topic
1 User(s) are reading this topic (1 Guests and 0 Anonymous Users)
0 Members:

 



- Lo-Fi Version Support form
Copyrights and abuse reports form
Time is now: 5th July 2022 - 23:49:45