Welcome Guest ( Log In | Register )

Причина закрытия (Proteus_666 14-01-2022): альбом не полный
 
Closed TopicStart new topic
> Volatile - Volatile [ep] (1997), Thrash Metal
post Jan 14 2022, 12:28:07
Post #1

Подвал
**************
Group: Металариец
Posts: 17,180
Releases: 9824
From: Far East (Khabarovsk)
On Forums: 13 years 3 months
Thanks: 113230 time(s)
Russian Federation


(IMG:http://metalarea.org/images/audiocovers/2022_Jan/acov_tid360472_thumb.jpg)

*Artist: Volatile
*Album: Volatile [ep]
*Year: 1997
*Genre: Thrash Metal
*Country: Canada (IMG:http://metalarea.org/forum/style_images/flags/Canada.png)
*Format: mp3@CBR192kbps
*Size: 26MB

Tracklist:
1. Pain 03:03
2. Starve For The Sound 04:11
3. Unusual Punishment 03:54
4. Only What You Make 04:46
5. Physical Mechanics 03:31
******************************
Total playing time: 19:25

Extended info
Recorded at N.A.L Sound Studio North Vancouver November 01, 1997.


Technical info
(IMG:http://metalarea.org/images/spectrogram/2022_Jan/3047e527d2731466fd12c041179ee7be.png)
Input File: 01-Pain.mp3
Channels : 2
Sample Rate : 44100
Precision : 16-bit
Duration : 00:03:02.84 = 8063288 samples = 13713.1 CDDA sectors
File Size : 4.39M
Bit Rate : 192k
Sample Encoding: MPEG audio (layer I, II or III)
Comments :
Title=Pain
Artist=Volatile (Can)
Album=Volatile (EP)
Tracknumber=01
Year=1997
Genre=Thrash Metal



Register


Go to the top of the page
  Insert nick Quick quote
+Quote Post

Причина закрытия (Proteus_666 14-01-2022): альбом не полный
Closed TopicStart new topic
1 User(s) are reading this topic (1 Guests and 0 Anonymous Users)
0 Members:

 



- Lo-Fi Version Support form
Copyrights and abuse reports form
Time is now: 24th May 2022 - 18:59:22