Welcome Guest ( Log In | Register )

> Releases Upload / Добавление релизов

Добавить релиз тут / Click here to add release
Рекомендованные обменники / Recommended file shares

 
Reply to this topicStart new topic
> Vicious Circle - Demo 1993 [demo] (1993), Heavy/Power Metal (D7)
post Jan 14 2022, 13:42:52
Post #1

Подвал
**************
Group: Металариец
Posts: 16,681
Releases: 9529
From: Far East (Khabarovsk)
On Forums: 12 years 11 months
Thanks: 109085 time(s)
Russian Federation


(IMG:http://metalarea.org/images/audiocovers/2022_Jan/acov_tid360473_thumb.jpg)

*Artist: Vicious Circle
*Album: Demo 1993 [demo]
*Year: 1993
*Genre: Heavy/Power Metal
*Country: United States (IMG:http://metalarea.org/forum/style_images/flags/United%20States.png)
*Format: mp3@CBR320kbps
*Size: 37MB

Tracklist:
1. Impaler 03:40
2. King Of NY 03:21
3. Traveler 03:43
4. Nightmares 04:23
5. Queen Of Hearts 03:24
******************************
Total playing time: 18:31

Extended info
Band from Buffalo, New York.


Technical info
(IMG:http://metalarea.org/images/spectrogram/2022_Jan/8e1ac4d215445d40dc5a028d543871d5.png)
Input File: 01-Impaler.mp3
Channels : 2
Sample Rate : 44100
Precision : 16-bit
Duration : 00:03:40.77 = 9735825 samples = 16557.5 CDDA sectors
File Size : 8.83M
Bit Rate : 320k
Sample Encoding: MPEG audio (layer I, II or III)
Comments :
Title=Impaler
Artist=Vicious Circle (US-NY)
Album=Demo (1993)
Tracknumber=01
Year=1993
Genre=Power Metal



Register


Go to the top of the page
  Insert nick Quick quote
+Quote Post

Reply to this topicStart new topic
2 User(s) are reading this topic (2 Guests and 0 Anonymous Users)
0 Members:

 



- Lo-Fi Version Support form
Copyrights and abuse reports form
Time is now: 22nd January 2022 - 18:58:11