Welcome Guest ( Log In | Register )

 
Reply to this topicStart new topic
> Tempesta - Depression [demo] (1995), Thrash Metal (D5)
post Jan 14 2022, 14:05:07
Post #1

Подвал
**************
Group: Металариец
Posts: 16,698
Releases: 9536
From: Far East (Khabarovsk)
On Forums: 13 years 3 days
Thanks: 109240 time(s)
Russian Federation


(IMG:http://metalarea.org/images/audiocovers/2022_Jan/acov_tid360474_thumb.JPG)

*Artist: Tempesta
*Album: Depression [demo]
*Year: 1995
*Genre: Thrash Metal
*Country: Switzerland (IMG:http://metalarea.org/forum/style_images/flags/Switzerland.png)
*Format: mp3@CBR192kbps
*Size: 30MB

Tracklist:
1. Storm Of Cries 06:09
2. Fear Of Today 06:35
3. Depression 05:11
4. In Another World 04:04
******************************
Total playing time: 21:59

(IMG:http://metalarea.org/images/youtube.png)

Extended info
Their sole thrash metal release.


Technical info
(IMG:http://metalarea.org/images/spectrogram/2022_Jan/c5adfd3923207ca13247e11768898418.png)
Input File: 01-Storm of Cries.mp3
Channels : 2
Sample Rate : 44100
Precision : 16-bit
Duration : 00:06:09.47 = 16293451 samples = 27710 CDDA sectors
File Size : 8.87M
Bit Rate : 192k
Sample Encoding: MPEG audio (layer I, II or III)
Comments :
Title=Storm of Cries
Artist=Tempesta (Switz)
Album=Depression (Demo)
Tracknumber=01
Year=1995-14-01
Genre=Thrash Metal



Register


Go to the top of the page
  Insert nick Quick quote
+Quote Post

Reply to this topicStart new topic
2 User(s) are reading this topic (2 Guests and 0 Anonymous Users)
0 Members:

 



- Lo-Fi Version Support form
Copyrights and abuse reports form
Time is now: 29th January 2022 - 09:08:42