Welcome Guest ( Log In | Register )

 
Reply to this topicStart new topic
> Funeraria - Nuclear Apocalypt (2022), Black/Death Metal
post Jan 14 2022, 16:08:52
Post #1

Маньяк
**********
Group: Металариец
Posts: 1,094
Releases: 934
On Forums: 1 year 1 month
Thanks: 24546 time(s)
United States


(IMG:http://metalarea.org/images/audiocovers/2022_Jan/acov_tid360478_thumb.jpg)

*Artist: Funeraria
*Album: Nuclear Apocalypt
*Year: 2022
*Genre: Black/Death Metal
*Country: Costa Rica (IMG:http://metalarea.org/forum/style_images/flags/Costa%20Rica.png)
*Format: mp3@CBR320kbps
*Size: 81MB

Tracklist:
01. Specters Of The Apocalypse 01:28
02. Bastard Traitor 03:04
03. They Shall Not Grow Old 02:14
04. ARTIDI 04:20
05. Cobalt Bomb 03:27
06. Antihumano 02:03
07. Death Cult Of Kali 04:57
08. Roman Revenge 04:36
09. Enemy Territory 02:58
10. Law Of Survival 02:43
11. Renati In Blasphemiam 01:02
******************************
Total playing time: 32:52



Technical info
(IMG:http://metalarea.org/images/spectrogram/2022_Jan/1b783061795a03a24396879331dde006.png)
Input File: 02. Bastard Traitor.mp3
Channels : 2
Sample Rate : 44100
Precision : 16-bit
Duration : 00:03:04.00 = 8114400 samples = 13800 CDDA sectors
File Size : 7.43M
Bit Rate : 323k
Sample Encoding: MPEG audio (layer I, II or III)
Comments :
Title=Bastard Traitor
Artist=Funeraria
Album=Nuclear Apocalypt
Tracknumber=02/11
Year=2022
Discnumber=1/1



Register


Go to the top of the page
  Insert nick Quick quote
+Quote Post

Reply to this topicStart new topic
1 User(s) are reading this topic (1 Guests and 0 Anonymous Users)
0 Members:

 



- Lo-Fi Version Support form
Copyrights and abuse reports form
Time is now: 29th May 2022 - 06:59:58