Welcome Guest ( Log In | Register )

 
Reply to this topicStart new topic
> Nitoa - Odium (2022), Groove/Thrash Metal
post Jan 14 2022, 16:20:57
Post #1

Правь статус, ####!111
**************
Group: Металариец
Posts: 29,663
Releases: 21813
From: Г.Харьков
On Forums: 10 years 1 month
Thanks: 452294 time(s)
Unknown


(IMG:https://metalarea.org/images/audiocovers/2022_Jan/acov_tid360479_thumb.jpg)

*Artist: Nitoa
*Album: Odium
*Year: 2022
*Genre: Groove/Thrash Metal
*Country: Poland (IMG:https://metalarea.org/forum/style_images/flags/Poland.png)
*Format: mp3@CBR320kbps
*Size: 100MB

Tracklist:
1. Beton
2. Pustka
3. Pies
4. Smutek
5. Anioł
6. Szron
7. Odium
8. Cela
9. Gorycz
10. Cienie
******************************
Total playing time: 43:07



Extended info


Technical info
(IMG:https://metalarea.org/images/spectrogram/2022_Jan/d28d1968616df6b6221d8f1a4e601ebe.png)
Input File: 07 - Odium.mp3
Channels : 2
Sample Rate : 44100
Precision : 16-bit
Duration : 00:06:31.00 = 17242924 samples = 29324.7 CDDA sectors
File Size : 15.8M
Bit Rate : 323k
Sample Encoding: MPEG audio (layer I, II or III)
Comments :
Title=Odium
Artist=NITOA
Album=ODIUM
Tracknumber=7/10
Year=2022



Register


Go to the top of the page
  Insert nick Quick quote
+Quote Post

Reply to this topicStart new topic
2 User(s) are reading this topic (2 Guests and 0 Anonymous Users)
0 Members:

 



- Lo-Fi Version Support form
Copyrights and abuse reports form
Time is now: 3rd July 2022 - 19:47:28