Welcome Guest ( Log In | Register )

 
Reply to this topicStart new topic
> Rake-Off - Observing Madness (2022), Thrash Metal/Crossover
post Jan 14 2022, 16:47:57
Post #1

Правь статус, ####!111
**************
Group: Металариец
Posts: 29,287
Releases: 21502
From: Г.Харьков
On Forums: 10 years 2 weeks
Thanks: 444039 time(s)
Unknown


(IMG:https://metalarea.org/images/audiocovers/2022_Jan/acov_tid360480_thumb.jpg)

*Artist: Rake-Off
*Album: Observing Madness
*Year: 2022
*Genre: Thrash Metal/Crossover
*Country: Italy (IMG:https://metalarea.org/forum/style_images/flags/Italy.png)
*Format: mp3@CBR320kbps
*Size: 59MB

Tracklist:
1. The Glowing Descent 02:04 instrumental
2. To Live in Fear 02:30
3. Killing Machine 02:10
4. Evil From the Depths 03:14
5. Living Paradox 02:28
6. Push Me Down 02:51
7. Eternal Curse 02:17
8. Trapped 02:04
9. Modern Slavery 01:50
10. Deathrider (Anthrax cover) 03:09
******************************
Total playing time: 24:37




Extended info
Valerio Bass
Mirko Drums
Stefano Guitars
Francesco Di Fabio Unknown
Fabio "Banfio" Unknown


Technical info
(IMG:https://metalarea.org/images/spectrogram/2022_Jan/86a38cb2d7dade4095608c22f35a8259.png)
Input File: Rake-Off - Observing Madness - 07 Eternal Curse.mp3
Channels : 2
Sample Rate : 44100
Precision : 16-bit
Duration : 00:02:17.41 = 6059825 samples = 10305.8 CDDA sectors
File Size : 5.71M
Bit Rate : 332k
Sample Encoding: MPEG audio (layer I, II or III)
Comments :
Title=Eternal Curse
Artist=Rake-Off
Album=Observing Madness
Tracknumber=7
Year=2022



Register


Go to the top of the page
  Insert nick Quick quote
+Quote Post
post Jan 17 2022, 20:36:01
Post #2

Два Литра
**
Group: Завсегдатай
Posts: 160
Releases: 3
From: Украина
On Forums: 3 years 10 months
Thanks: 72 time(s)
Ukraine


1. The Glowing Descent понравился!
Go to the top of the page
  Insert nick Quick quote
+Quote Post

Reply to this topicStart new topic
1 User(s) are reading this topic (1 Guests and 0 Anonymous Users)
0 Members:

 



- Lo-Fi Version Support form
Copyrights and abuse reports form
Time is now: 25th May 2022 - 04:57:27