Welcome Guest ( Log In | Register )

> Exhaustion - Cold Death Embrace [ep] (2022), Thrash Metal/Crossover
post Jan 14 2022, 17:16:34
Post #1

Правь статус, ####!111
**************
Group: Металариец
Posts: 29,216
Releases: 21439
From: Г.Харьков
On Forums: 10 years 1 week
Thanks: 442700 time(s)
Unknown


(IMG:https://metalarea.org/images/audiocovers/2022_Jan/acov_tid360482_thumb.jpg)

*Artist: Exhaustion
*Album: Cold Death Embrace [ep]
*Year: 2022
*Genre: Thrash Metal/Crossover
*Country: Italy (IMG:https://metalarea.org/forum/style_images/flags/Italy.png)
*Format: mp3@CBR320kbps
*Size: 50MB

Tracklist:
1. Heavy Metal Hikers 04:32
2. The Pale Horse Named Death 03:36
3. Midnight Sasquatch 03:52
4. Entrenched Skies 04:57
5. War Flags 04:34
******************************
Total playing time: 21:31




Extended info
Federico "V" Bass
See also: Nero or the Fall of Rome, Riul Doamnei
Luca L. Drums
See also: Nero or the Fall of Rome, ex-Riul Doamnei
Elia M. Guitars, Vocals
See also: Nero or the Fall of Rome, Riul Doamnei, Cast Down the Enemy


Technical info
(IMG:https://metalarea.org/images/spectrogram/2022_Jan/771e27fc75cde242d32ff18599ce3302.png)
Input File: 05 - War Flags.mp3
Channels : 2
Sample Rate : 44100
Precision : 16-bit
Duration : 00:04:34.09 = 12087413 samples = 20556.8 CDDA sectors
File Size : 11.2M
Bit Rate : 326k
Sample Encoding: MPEG audio (layer I, II or III)
Comments :
Title=War Flags
Artist=Exhaustion
Album=Cold Death Embrace
Tracknumber=5/1



Register


Go to the top of the page
  Insert nick Quick quote
+Quote Post
 
Start new topic
Replies (1 - 2)
post Jan 16 2022, 18:00:32
Post #2

0%Tolerance
***********
Group: Металариец
Posts: 1,820
Releases: 0
On Forums: 9 years 8 months
Thanks: 390 time(s)
Unknown


Норм. Хотя по тегам - это другое. (IMG:style_emoticons/default/1488.gif)


Thanks:
(1) Storky,
Go to the top of the page
  Insert nick Quick quote
+Quote Post
post Jan 17 2022, 16:03:29
Post #3

добрый мизантроп
**************
Group: Металариец
Posts: 2,943
Releases: 1
From: Менск
On Forums: 11 years 6 months
Thanks: 1306 time(s)
Madagascar


ЦИТАТА(Vitald @ Jan 16 2022, 20:00:32) *
Норм. Хотя по тегам - это другое. (IMG:style_emoticons/default/1488.gif)

Трэш/Блэк н Ролл )
Бодрый альбом, один из лучших с последних двух страниц релизов, но оставлять цi не еще думаю
Go to the top of the page
  Insert nick Quick quote
+Quote Post

Reply to this topicStart new topic
1 User(s) are reading this topic (1 Guests and 0 Anonymous Users)
0 Members:

 



- Lo-Fi Version Support form
Copyrights and abuse reports form
Time is now: 18th May 2022 - 14:38:04