Welcome Guest ( Log In | Register )

> Releases Upload / Добавление релизов

Добавить релиз тут / Click here to add release
Рекомендованные обменники / Recommended file shares

 
Reply to this topicStart new topic
> Terrorform - Mother Terror [ep] (2022), Thrash/Groove Metal
post Jan 14 2022, 17:26:40
Post #1

Правь статус, ####!111
**************
Group: Металариец
Posts: 28,639
Releases: 20956
From: Г.Харьков
On Forums: 9 years 8 months
Thanks: 428495 time(s)
Unknown


(IMG:https://metalarea.org/images/audiocovers/2022_Jan/acov_tid360485_thumb.jpg)

*Artist: Terrorform
*Album: Mother Terror [ep]
*Year: 2022
*Genre: Thrash/Groove Metal
*Country: United States (IMG:https://metalarea.org/forum/style_images/flags/United%20States.png)
*Format: mp3@CBR320kbps
*Size: 49MB

Tracklist:
01. Mother Terror 06:36
02. Intro 02:39
03. Dark Matters 05:37
04. Intruder 06:33
******************************
Total playing time: 21:25




Extended info
Xavier "Lenny" Rodriguez Bass
Zachary Lee Mireles Drums
Case Rodriguez Guitars (lead)
Leo Villarreal Vocals
Gavin Torres Guitars (rhythm) (2018-present)


Technical info
(IMG:https://metalarea.org/images/spectrogram/2022_Jan/455965c6e0329b6cadf0fa9c9f0cff06.png)
Input File: 04 - Intruder.mp3
Channels : 2
Sample Rate : 44100
Precision : 16-bit
Duration : 00:06:33.35 = 17346735 samples = 29501.2 CDDA sectors
File Size : 15.8M
Bit Rate : 321k
Sample Encoding: MPEG audio (layer I, II or III)
Comments :
Title=Intruder
Artist=Terrorform
Album=Mother Terror
Tracknumber=4
Year=2022
Discnumber=1/1



Register


Go to the top of the page
  Insert nick Quick quote
+Quote Post

Reply to this topicStart new topic
1 User(s) are reading this topic (1 Guests and 0 Anonymous Users)
0 Members:

 



- Lo-Fi Version Support form
Copyrights and abuse reports form
Time is now: 29th January 2022 - 08:32:38