Welcome Guest ( Log In | Register )

> Rotten Casket - First Nail In The Casket [ep] (2022), Old School Death Metal
post Jan 14 2022, 17:48:01
Post #1

Правь статус, ####!111
**************
Group: Металариец
Posts: 29,680
Releases: 21832
From: Г.Харьков
On Forums: 10 years 1 month
Thanks: 452702 time(s)
Unknown


(IMG:https://metalarea.org/images/audiocovers/2022_Jan/acov_tid360504_thumb.jpg)

*Artist: Rotten Casket
*Album: First Nail In The Casket [ep]
*Year: 2022
*Genre: Old School Death Metal
*Country: Netherlands (IMG:https://metalarea.org/forum/style_images/flags/Netherlands.png)
*Format: mp3@CBR320kbps
*Size: 43MB

Tracklist:
01. Covid-119
02. Caskets on Wheels
03. Bonetomb Residents
04. Coffin Birth
******************************
Total playing time: 18:23




Extended info
Frank Guitars (2013-2018, 2020-present)
Patrick van der Beek Bass (2020-present)
See also: Disabuse
Stefan "Husky" Hüskens Drums (2020-present)
See also: Asphyx, Carnal Ghoul, Metalucifer, Trinitas, ex-Infektor, ex-Deathfist, ex-Decayed, ex-Desaster, ex-Satanika, ex-Sodom, ex-Crom (live), ex-Metal Inquisitor
Yorck Segatz Guitars (2020-present)
See also: Neck Cemetery, Sodom, ex-Beyondition
Martin van Drunen Vocals (2021-present)
See also: Asphyx, Grand Supreme Blood Court, ex-Pestilence, ex-Death by Dawn, ex-Hail of Bullets, ex-Submission, ex-Bolt Thrower (live), ex-First Class Elite


Technical info
(IMG:https://metalarea.org/images/spectrogram/2022_Jan/1f95fbe7111b230dbbb6f943e5507482.png)
Input File: 04 - Coffin Birth.mp3
Channels : 2
Sample Rate : 44100
Precision : 16-bit
Duration : 00:04:24.92 = 11683060 samples = 19869.1 CDDA sectors
File Size : 10.8M
Bit Rate : 325k
Sample Encoding: MPEG audio (layer I, II or III)
Comments :
Title=Coffin Birth
Artist=Rotten Casket
Album=First Nail In The Casket
Tracknumber=4/1



Register


Go to the top of the page
  Insert nick Quick quote
+Quote Post
 
Start new topic
Replies (1 - 1)
post Jan 15 2022, 08:28:25
Post #2

Мегаманьяк
***********
Group: Металариец
Posts: 1,711
Releases: 1
From: APATIN, SERBIA, АПАТИН, СЕРБИЯ
On Forums: 14 years 8 months
Thanks: 5020 time(s)



Flac

Register


Thanks:
Go to the top of the page
  Insert nick Quick quote
+Quote Post

Reply to this topicStart new topic
1 User(s) are reading this topic (1 Guests and 0 Anonymous Users)
0 Members:

 



- Lo-Fi Version Support form
Copyrights and abuse reports form
Time is now: 6th July 2022 - 08:41:39