Welcome Guest ( Log In | Register )

> Releases Upload / Добавление релизов

Добавить релиз тут / Click here to add release
Рекомендованные обменники / Recommended file shares

 
Reply to this topicStart new topic
> Mizmor - Wit's End [ep] (2022), Black/Drone/Doom Metal
post Jan 14 2022, 17:54:47
Post #1

Правь статус, ####!111
**************
Group: Металариец
Posts: 4,574
Releases: 4209
From: Одесса
On Forums: 13 years 7 months
Thanks: 46909 time(s)
Ukraine


(IMG:http://metalarea.org/images/audiocovers/2022_Jan/acov_tid360505_thumb.jpg)

*Artist: Mizmor
*Album: Wit's End [ep]
*Year: 2022
*Genre: Black/Drone/Doom Metal
*Country: United States (IMG:http://metalarea.org/forum/style_images/flags/United%20States.png)
*Format: mp3@CBR320kbps
*Size: 69MB

Tracklist:
1. Wit's End 14:57
2. Pareidolia 14:04
******************************
Total playing time: 29:01




Technical info
(IMG:http://metalarea.org/images/spectrogram/2022_Jan/6f3120b71713f631469efff919c5af51.png)
Input File: 01 - Wit\'s End.mp3
Channels : 2
Sample Rate : 44100
Precision : 16-bit
Duration : 00:14:57.62 = 39585042 samples = 67321.5 CDDA sectors
File Size : 36.0M
Bit Rate : 321k
Sample Encoding: MPEG audio (layer I, II or III)
Comments :
Title=Wit's End
Artist=Mizmor
Album=Wit's End (EP)
Tracknumber=1
Year=2022
Genre=Black | Drone | Doom Metal



Register


Go to the top of the page
  Insert nick Quick quote
+Quote Post

Reply to this topicStart new topic
1 User(s) are reading this topic (1 Guests and 0 Anonymous Users)
0 Members:

 



- Lo-Fi Version Support form
Copyrights and abuse reports form
Time is now: 22nd January 2022 - 18:30:39