Welcome Guest ( Log In | Register )

> Releases Upload / Добавление релизов

Добавить релиз тут / Click here to add release
Рекомендованные обменники / Recommended file shares

> Midnight & Shitfucker - Midnight/Shitfucker [split] (2015), Black/Speed Metal | Black/Thrash Metal (D)(D7)
post Jan 14 2022, 18:05:00
Post #1

Правь статус, 616
**************
Group: Металариец
Posts: 7,248
Releases: 5661
From: 55°35’N 38°08’E
On Forums: 13 years 6 months
Thanks: 104781 time(s)
Unknown


(IMG:https://metalarea.org/images/audiocovers/2022_Jan/acov_tid360506_thumb.jpg)

*Artist: Midnight & Shitfucker
*Album: Midnight/Shitfucker [split]
*Year: 2015
*Genre: Black/Speed Metal | Black/Thrash Metal
*Country: United States (IMG:https://metalarea.org/forum/style_images/flags/United%20States.png) | United States (IMG:https://metalarea.org/forum/style_images/flags/United%20States.png)
*Format: mp3@CBR320kbps
*Size: 23MB

Tracklist:
1. Midnight - Sadist Sodomystic Seducer 02:12
2. Shitfucker - Nightmare (pt. 2) 03:48
******************************
Total playing time: 6:00




Technical info
(IMG:https://metalarea.org/images/spectrogram/2022_Jan/c1a727011da044704ac0c234397cd4c2.png)
Input File: 02 Shitfucker - Nightmare (pt. 2).mp3
Channels : 2
Sample Rate : 44100
Precision : 16-bit
Duration : 00:03:48.35 = 10070323 samples = 17126.4 CDDA sectors
File Size : 9.21M
Bit Rate : 323k
Sample Encoding: MPEG audio (layer I, II or III)
Comments :
Title=Nightmare, Pt. 2
Artist=Shitfucker
Album=Midnight / Shitfucker
Tracknumber=2
Year=2015
Genre=Metal



Register


Go to the top of the page
  Insert nick Quick quote
+Quote Post
 
Start new topic
Replies (1 - 1)
post Jan 15 2022, 07:32:40
Post #2

hearer & reader
**************
Group: Металариец
Posts: 10,068
Releases: 183
From: Moscow
On Forums: 14 years 4 months
Thanks: 11657 time(s)
Russian Federation


Трек Midnight есть на компиляции 2017 (IMG:style_emoticons/default/smile1.gif)
Go to the top of the page
  Insert nick Quick quote
+Quote Post

Reply to this topicStart new topic
1 User(s) are reading this topic (1 Guests and 0 Anonymous Users)
0 Members:

 



- Lo-Fi Version Support form
Copyrights and abuse reports form
Time is now: 22nd January 2022 - 18:41:11