Welcome Guest ( Log In | Register )

> Releases Upload / Добавление релизов

Добавить релиз тут / Click here to add release
Рекомендованные обменники / Recommended file shares

> Horndal - Be Evil [ep] (2022), Sludge/Hardcore
post Jan 14 2022, 18:18:58
Post #1

Правь статус, ####!111
**************
Group: Металариец
Posts: 4,574
Releases: 4209
From: Одесса
On Forums: 13 years 7 months
Thanks: 46909 time(s)
Ukraine


(IMG:http://metalarea.org/images/audiocovers/2022_Jan/acov_tid360507_thumb.jpg)

*Artist: Horndal
*Album: Be Evil [ep]
*Year: 2022
*Genre: Sludge/Hardcore
*Country: Sweden (IMG:http://metalarea.org/forum/style_images/flags/Sweden.png)
*Format: mp3@CBR320kbps
*Size: 19MB

Tracklist:
1. Be Evil 04:18
2. The Deceiver 03:43
******************************
Total playing time: 8:01



Extended info
Line - up:

Erik Welén - Bass
Pontus Levahn - Drums (Tiger Lou, Torpedo)
Fredrik Boëthius Fjȁrem - Guitars (C.B Murdoc, ex-Mörk Gryning)
Henrik Levahn - Vocals, Guitars


Technical info
(IMG:http://metalarea.org/images/spectrogram/2022_Jan/a8c4cd6b7aba19e421d810b5acfe8794.png)
Input File: 02-horndal-the_deceiver-f9c7eca2.mp3
Channels : 2
Sample Rate : 44100
Precision : 16-bit
Duration : 00:03:42.50 = 9812250 samples = 16687.5 CDDA sectors
File Size : 8.90M
Bit Rate : 320k
Sample Encoding: MPEG audio (layer I, II or III)
Comments :
Title=The Deceiver
Artist=Horndal
Album=Be Evil (EP)
Tracknumber=2
Year=2022
Genre=Sludge Metal | Hardcore



Register


Go to the top of the page
  Insert nick Quick quote
+Quote Post
 
Start new topic
Replies (1 - 1)
post Jan 17 2022, 10:12:36
Post #2

0%Tolerance
***********
Group: Металариец
Posts: 1,637
Releases: 0
On Forums: 9 years 4 months
Thanks: 320 time(s)
Unknown


Годняк.
Go to the top of the page
  Insert nick Quick quote
+Quote Post

Reply to this topicStart new topic
2 User(s) are reading this topic (2 Guests and 0 Anonymous Users)
0 Members:

 



- Lo-Fi Version Support form
Copyrights and abuse reports form
Time is now: 22nd January 2022 - 18:23:57