Welcome Guest ( Log In | Register )

 
Reply to this topicStart new topic
> Viharcsillag - A Világ, Amit Keresel (2021), Heavy Metal
post Jan 14 2022, 18:49:53
Post #1

Правь статус, ####!111
**************
Group: Металариец
Posts: 29,680
Releases: 21832
From: Г.Харьков
On Forums: 10 years 1 month
Thanks: 452688 time(s)
Unknown


(IMG:https://metalarea.org/images/audiocovers/2022_Jan/acov_tid360509_thumb.jpg)

*Artist: Viharcsillag
*Album: A Világ, Amit Keresel
*Year: 2021
*Genre: Heavy Metal
*Country: Hungary (IMG:https://metalarea.org/forum/style_images/flags/Hungary.png)
*Format: mp3@CBR320kbps
*Size: 138MB

Tracklist:
1. Nyitott szemmel 04:27
2. Szökésben 04:49
3. Magányos város 05:08
4. Porszem a gépben 05:01
5. Árnyék 04:54
6. Mint egy kép 05:41
7. Eladott titkok 03:43
8. Új esély 05:39
9. Hétköznapi hős 04:15
10. Utópia 06:49
11. Képbe zárva 04:31
12. A Dal 04:14
******************************
Total playing time: 59:11



Extended info


Technical info
(IMG:https://metalarea.org/images/spectrogram/2022_Jan/4d08bc434deb90ba8b80e47433212439.png)
Input File: 08 - Új esély.mp3
Channels : 2
Sample Rate : 44100
Precision : 16-bit
Duration : 00:05:39.35 = 14965291 samples = 25451.2 CDDA sectors
File Size : 13.8M
Bit Rate : 325k
Sample Encoding: MPEG audio (layer I, II or III)
Comments :
Title=Új esély
Artist=Viharcsillag
Album=A Világ, amit keresel
Tracknumber=8/1



Register


Go to the top of the page
  Insert nick Quick quote
+Quote Post

Reply to this topicStart new topic
1 User(s) are reading this topic (1 Guests and 0 Anonymous Users)
0 Members:

 



- Lo-Fi Version Support form
Copyrights and abuse reports form
Time is now: 6th July 2022 - 07:23:54