Welcome Guest ( Log In | Register )

> Releases Upload / Добавление релизов

Добавить релиз тут / Click here to add release
Рекомендованные обменники / Recommended file shares

> Ohio Slamboys - Chop X Drill X Kill (2022), Slam/Brutal Death Metal
post Jan 14 2022, 18:58:42
Post #1

Правь статус, ####!111
**************
Group: Металариец
Posts: 28,572
Releases: 20905
From: Г.Харьков
On Forums: 9 years 8 months
Thanks: 427452 time(s)
Unknown


(IMG:https://metalarea.org/images/audiocovers/2022_Jan/acov_tid360511_thumb.jpg)

*Artist: Ohio Slamboys
*Album: Chop X Drill X Kill
*Year: 2022
*Genre: Slam/Brutal Death Metal
*Country: France (IMG:https://metalarea.org/forum/style_images/flags/France.png)
*Format: mp3@CBR320kbps
*Size: 73MB

Tracklist:
1. Operation
2. Chop
3. Drill
4. Kill
5. Starts
6. Now
7. To
8. Save
9. Earth
******************************
Total playing time: 31:31




Extended info
Slamboy 2 All instruments
See also: Caïnan Dawn, Kloct, South of Hell, ex-Allobrogia
Slamboy 1 Vocals
See also: South of Hell


Technical info
(IMG:https://metalarea.org/images/spectrogram/2022_Jan/67a565b3122992afab9f2b26884ee6f7.png)
Input File: 09 - Earth.mp3
Channels : 2
Sample Rate : 44100
Precision : 16-bit
Duration : 00:03:26.74 = 9117410 samples = 15505.8 CDDA sectors
File Size : 8.40M
Bit Rate : 325k
Sample Encoding: MPEG audio (layer I, II or III)
Comments :
Title=Earth
Artist=Ohio Slamboys
Album=Chop x Drill x Kill
Tracknumber=9/9
Year=2022



Register


Go to the top of the page
  Insert nick Quick quote
+Quote Post
 
Start new topic
Replies (1 - 3)
post Jan 15 2022, 15:07:24
Post #2

Group: Дух
Posts: 5
Releases: 0
From: USA
On Forums: 10 years 10 months
Thanks: 2 time(s)
United States


The Ohio Slamboys are from France???! LMAO
OUI OUI
Go to the top of the page
  Insert nick Quick quote
+Quote Post
post Jan 16 2022, 20:53:23
Post #3

Три Литра
***
Group: Завсегдатай
Posts: 271
Releases: 0
From: Калуга
On Forums: 3 years 11 months
Thanks: 79 time(s)
Russian Federation


Go to the top of the page
  Insert nick Quick quote
+Quote Post
post Jan 17 2022, 14:47:29
Post #4

добрый мизантроп
**************
Group: Металариец
Posts: 2,780
Releases: 1
From: Менск
On Forums: 11 years 2 months
Thanks: 1219 time(s)
Madagascar


Low effort
Go to the top of the page
  Insert nick Quick quote
+Quote Post

Reply to this topicStart new topic
2 User(s) are reading this topic (2 Guests and 0 Anonymous Users)
0 Members:

 



- Lo-Fi Version Support form
Copyrights and abuse reports form
Time is now: 22nd January 2022 - 18:14:30